Отмель / The Shallows (Хауме Кольет-Серра / Jaume Collet-Serra) [2016, США, ужасы, триллер, драма, BDRip-AVC] Dub + Original + Sub (rus, eng)

Reply to topic
 
Author
Message

Satyr ®

Gender: Unknown

Longevity: 11 years

Posts: 15401

Reputation: 55 [+] [-]

Satyr · Post 14-Sep-2016 07:15

[Quote] 

Отмель / The Shallows«What was once in the deep is now in the shallows»- Страна: США
Жанр: ужасы, триллер, драма
Год выпуска: 2016
Продолжительность: 01:26:16
Перевод: Профессиональный (дублированный) (iTunes)
Оригинальная аудиодорожка: английский
Cубтитры: русские (форс., полные), английские (форс., полные)
Навигация по главам: есть
Режиссер: Хауме Кольет-Серра / Jaume Collet-Serra
В ролях: Блейк Лайвли, Оскар Хаэнада, Бретт Каллен, Седона Ледже, Пабло Кальва, Диего Эспехель, Джанелл Бэйли, Ава Дин, Челси Муди, Салли Сигалл
Описание: Бескрайний океан, безлюдный пляж и идеальная погода для серфингистов в поисках хорошей волны. Казалось бы, ничто не предвещает беды для очаровательной любительницы серфинга в одиночку. Разве что свидание тет-а-тет с гигантской акулой, которая загонит спортсменку на песчаную отмель и не отступит до тех пор, пока не получит своё.- -Качество: BDRip-AVC (исходник - BDRemux|THE_SHALLOWS_REMUX_HDCLUB)
Формат видео: MKV
Видео: x264, 848x354 (2.40:1), 23,976 fps, ~2899 kbps, 0.403 bit/pixel
Аудио 1: 48 kHz, AC3 Dolby Digital, 3/2 (L,C,R,l,r) + LFE ch, ~384 kbps [русский]
Аудио 2: 48 kHz, AC3 Dolby Digital, 2/0 (L,R) ~192 kbps [английский]
Формат субтитров: softsub (SRT)-

MediaInfo | x264 log

Format : Matroska
Format version : Version 4 / Version 2
File size : 2.14 GiB
Duration : 1h 26mn
Overall bit rate : 3 546 Kbps
Movie name : Отмель / The Shallows (2016) :: AFM ::
Encoded date : UTC 2016-09-13 18:38:20
Writing application : mkvmerge v8.3.0 ('Over the Horizon') 32bit
Writing library : libebml v1.3.1 + libmatroska v1.4.2
Video
ID : 1
Format : AVC
Format/Info : Advanced Video Codec
Format profile : High@L4.1
Format settings, CABAC : Yes
Format settings, ReFrames : 11 frames
Codec ID : V_MPEG4/ISO/AVC
Duration : 1h 26mn
Bit rate : 2 899 Kbps
Width : 848 pixels
Height : 354 pixels
Display aspect ratio : 2.40:1
Frame rate mode : Constant
Frame rate : 23.976 fps
Color space : YUV
Chroma subsampling : 4:2:0
Bit depth : 8 bits
Scan type : Progressive
Bits/(Pixel*Frame) : 0.403
Stream size : 1.75 GiB (82%)
Title : BDRip by AFM [torrentsland.com.ua]
Writing library : x264 core 148 r2705+54 9f484c1 t_mod_Custom [8-bit@all X86_64]
Encoding settings : cabac=1 / ref=11 / deblock=1:-2:-2 / analyse=0x3:0x113 / me=umh / subme=10 / psy=1 / fade_compensate=0.00 / psy_rd=1.00:0.00 / mixed_ref=1 / me_range=32 / chroma_me=1 / trellis=2 / 8x8dct=1 / cqm=0 / deadzone=21,11 / fast_pskip=0 / chroma_qp_offset=-2 / threads=6 / lookahead_threads=1 / sliced_threads=0 / nr=0 / decimate=1 / interlaced=0 / bluray_compat=0 / constrained_intra=0 / fgo=0 / bframes=11 / b_pyramid=2 / b_adapt=2 / b_bias=0 / direct=1 / weightb=1 / open_gop=0 / weightp=2 / keyint=250 / keyint_min=23 / scenecut=40 / intra_refresh=0 / rc_lookahead=40 / rc=crf / mbtree=0 / crf=17.5000 / qcomp=0.70 / qpmin=0:0:0 / qpmax=69:69:69 / qpstep=4 / vbv_maxrate=50000 / vbv_bufsize=62500 / crf_max=0.0 / nal_hrd=none / filler=0 / ip_ratio=1.30 / pb_ratio=1.25 / aq=3:0.80 / aq-sensitivity=10.00 / aq-factor=1.00:1.00:1.00 / aq2=0 / aq3=0 / zones=117060,124104,q=30
Language : English
Default : Yes
Forced : No
Audio #1
ID : 2
Format : AC-3
Format/Info : Audio Coding 3
Mode extension : CM (complete main)
Format settings, Endianness : Big
Codec ID : A_AC3
Duration : 1h 26mn
Bit rate mode : Constant
Bit rate : 384 Kbps
Channel(s) : 6 channels
Channel positions : Front: L C R, Side: L R, LFE
Sampling rate : 48.0 KHz
Compression mode : Lossy
Stream size : 237 MiB (11%)
Title : Dub, AC3 5.1 ~384 kbps
Language : Russian
Default : Yes
Forced : No
Audio #2
ID : 3
Format : AC-3
Format/Info : Audio Coding 3
Mode extension : CM (complete main)
Format settings, Endianness : Big
Codec ID : A_AC3
Duration : 1h 26mn
Bit rate mode : Constant
Bit rate : 192 Kbps
Channel(s) : 2 channels
Channel positions : Front: L R
Sampling rate : 48.0 KHz
Compression mode : Lossy
Stream size : 118 MiB (5%)
Title : Original, AC3 2.0 ~192 kbps
Language : English
Default : No
Forced : No
Text #1
ID : 4
Format : UTF-8
Codec ID : S_TEXT/UTF8
Codec ID/Info : UTF-8 Plain Text
Title : forced
Language : Russian
Default : Yes
Forced : No
Text #2
ID : 5
Format : UTF-8
Codec ID : S_TEXT/UTF8
Codec ID/Info : UTF-8 Plain Text
Language : Russian
Default : No
Forced : No
Text #3
ID : 6
Format : UTF-8
Codec ID : S_TEXT/UTF8
Codec ID/Info : UTF-8 Plain Text
Title : forced
Language : English
Default : No
Forced : No
Text #4
ID : 7
Format : UTF-8
Codec ID : S_TEXT/UTF8
Codec ID/Info : UTF-8 Plain Text
Language : English
Default : No
Forced : No
Menu
00:00:00.000 : en:Chapter 1
00:08:09.697 : en:Chapter 2
00:15:10.407 : en:Chapter 3
00:20:31.939 : en:Chapter 4
00:25:45.876 : en:Chapter 5
00:30:07.055 : en:Chapter 6
00:36:04.118 : en:Chapter 7
00:40:39.685 : en:Chapter 8
00:45:41.611 : en:Chapter 9
00:49:32.219 : en:Chapter 10
00:55:57.977 : en:Chapter 11
01:01:21.510 : en:Chapter 12
01:06:22.561 : en:Chapter 13
01:09:57.443 : en:Chapter 14
01:13:38.704 : en:Chapter 15
01:19:01.485 : en:Chapter 16

x264

x264 [info]: frame I:833 Avg QP:17.73 size: 39546
x264 [info]: frame P:31149 Avg QP:19.07 size: 23771
x264 [info]: frame B:92122 Avg QP:21.67 size: 12449
x264 [info]: consecutive B-frames: 2.9% 3.0% 7.8% 49.7% 15.6% 13.4% 4.5% 1.0% 1.4% 0.6% 0.1% 0.0%
x264 [info]: mb I I16..4: 5.9% 73.7% 20.4%
x264 [info]: mb P I16..4: 1.8% 26.6% 6.2% P16..4: 26.2% 21.5% 11.3% 0.0% 0.0% skip: 6.4%
x264 [info]: mb B I16..4: 0.2% 4.6% 2.4% B16..8: 31.5% 17.2% 6.6% direct: 8.3% skip:29.1% L0:40.6% L1:37.5% BI:21.9%
x264 [info]: 8x8 transform intra:71.7% inter:69.4%
x264 [info]: coded y,uvDC,uvAC intra: 86.9% 82.8% 58.0% inter: 37.4% 26.0% 7.8%
x264 [info]: i16 v,h,dc,p: 19% 22% 3% 56%
x264 [info]: i8 v,h,dc,ddl,ddr,vr,hd,vl,hu: 11% 18% 6% 7% 11% 9% 14% 9% 15%
x264 [info]: i4 v,h,dc,ddl,ddr,vr,hd,vl,hu: 19% 10% 4% 7% 13% 10% 15% 8% 15%
x264 [info]: i8c dc,h,v,p: 36% 32% 16% 16%
x264 [info]: Weighted P-Frames: Y:5.5% UV:2.8%
x264 [info]: ref P L0: 49.5% 12.8% 13.7% 6.1% 4.5% 3.6% 2.9% 1.9% 1.7% 1.6% 1.5% 0.1% 0.0%
x264 [info]: ref B L0: 78.8% 8.1% 4.5% 2.3% 1.9% 1.4% 1.2% 0.8% 0.6% 0.3%
x264 [info]: ref B L1: 96.4% 3.6%
x264 [info]: kb/s:2967.78

Скриншоты

с названием

[Profile]  [PM] 
Display posts:    
Reply to topic

Current time is: 18-Sep 14:47

All times are UTC + 2



You cannot post new topics in this forum
You cannot reply to topics in this forum
You cannot edit your posts in this forum
You cannot delete your posts in this forum
You cannot vote in polls in this forum
You cannot attach files in this forum
You cannot download files in this forum