Чудеса с Небес / Miracles from Heaven (Патрисия Ригген / Patricia Riggen) [2016, США, драма, BDRip] MVO

Reply to topic
 
Author
Message

Satyr ®

Gender: Unknown

Longevity: 11 years

Posts: 15401

Reputation: 55 [+] [-]

Satyr · Post 14-Sep-2016 23:35

[Quote] 

Чудеса с Небес / Miracles from Heaven
Страна: США
Жанр: драма
Год выпуска: 2016
Продолжительность: 01:49:01
Перевод: Профессиональный (многоголосый закадровый)
Cубтитры: нет
Оригинальная аудиодорожка: нет-Режиссер: Патрисия Ригген / Patricia Riggen-В ролях: Дженнифер Гарнер, Кайли Роджерс, Мартин Хендерсон, Брайтон Шарбино, Кортни Фанслер, Куин Латифа, Брайс Зенткович, Эухенио Дербес, Келли Коллинз, Джон Кэрролл Линч-Описание: Удивительная история, в которую невозможно поверить, не увидев собственными глазами. Когда кажется все потеряно, и впереди только боль и отчаяние, небеса дарят надежду тем, кто верит.- -Качество видео: BDRip | Blu-Ray Remux (1080p) Кинозал ТВ
Формат видео: AVI
Видео: 688x368 (1.87:1), 23.976 fps, XviD build 73 ~819 kbps avg, 0.14 bit/pixel
Аудио: 48 kHz, MPEG Layer 3, 2 ch, ~128.00 kbps avg-

MediaInfo

Формат                                   : AVI
Формат/Информация                        : Audio Video Interleave
Размер файла                             : 746 Мбайт
Продолжительность                        : 1 ч. 49 м.
Общий поток                              : 957 Кбит/сек
Программа кодирования                    : VirtualDubMod 1.5.10.3 | www.virtualdub-fr.org || (build 2550/release)
Библиотека кодирования                   : VirtualDubMod build 2550/release
Видео
Идентификатор                            : 0
Формат                                   : MPEG-4 Visual
Профиль формата                          : Advanced Simple@L5
Параметр BVOP формата                    : 1
Параметр QPel формата                    : Нет
Параметр GMC формата                     : Без точки перехода
Параметр матрицы формата                 : Выборочная
Идентификатор кодека                     : XVID
Идентификатор кодека/Подсказка           : XviD
Продолжительность                        : 1 ч. 49 м.
Битрейт                                  : 819 Кбит/сек
Ширина                                   : 688 пикселей
Высота                                   : 368 пикселей
Соотношение сторон                       : 1,85:1
Частота кадров                           : 23,976 (23976/1000) кадра/сек
Цветовое пространство                    : YUV
Субдискретизация насыщенности            : 4:2:0
Битовая глубина                          : 8 бит
Тип развёртки                            : Прогрессивная
Метод сжатия                             : С потерями
Бит/(Пиксели*Кадры)                      : 0.135
Размер потока                            : 639 Мбайт (86%)
Библиотека кодирования                   : XviD 73
Аудио
Идентификатор                            : 1
Формат                                   : MPEG Audio
Версия формата                           : Version 1
Профиль формата                          : Layer 3
Идентификатор кодека                     : 55
Идентификатор кодека/Подсказка           : MP3
Продолжительность                        : 1 ч. 49 м.
Вид битрейта                             : Постоянный
Битрейт                                  : 128 Кбит/сек
Каналы                                   : 2 канала
Частота                                  : 48,0 КГц
Метод сжатия                             : С потерями
Размер потока                            : 99,8 Мбайт (13%)
Выравнивание                             : Соединение по промежуткам
Продолжительность промежутка             : 42  мс. (1,00 видеокадр)
Время предзагрузки промежутка            : 504  мс.
Библиотека кодирования                   : LAME3.99r
Настройки программы                      : -m s -V 4 -q 2 -lowpass 17 -b 128

Скриншоты

[Profile]  [PM] 
Display posts:    
Reply to topic

Current time is: 21-Sep 05:51

All times are UTC + 2



You cannot post new topics in this forum
You cannot reply to topics in this forum
You cannot edit your posts in this forum
You cannot delete your posts in this forum
You cannot vote in polls in this forum
You cannot attach files in this forum
You cannot download files in this forum