Пришельцы 3: Взятие Бастилии / Les Visiteurs: La Revolution (Жан-Мари Пуаре / Jean-Marie Poire) [2016, Франция, Комедия, HDRip] Dub

Reply to topic
 
Author
Message

Satyr ®

Gender: Unknown

Longevity: 11 years

Posts: 15401

Reputation: 55 [+] [-]

Satyr · Post 15-Sep-2016 19:55

[Quote] 

Пришельцы 3: Взятие Бастилии / Les Visiteurs: La Revolution
Страна: Франция
Студия: Amazon Studios, Apollo Media, Film Art Media, Screen Australia
Жанр: Комедия
Год выпуска: 2016
Продолжительность: 01:49:29
Перевод: Профессиональный (дублированный) | iTunes
Cубтитры: нет
Режиссер: Жан-Мари Пуаре / Jean-Marie Poire
В ролях: Кристиан Клавье, Жан Рено, Франк Дюбоск, Карин Вьяр, Сильви Тестю, Мари-Анн Шазель, Эри Абиттан, Алекс Лутс, Стефани де Крэенкур, Вероника Буланжер
Описание: Легендарные и любимые миллионами комедии «Пришельцы» и «Пришельцы 2: Коридоры времени» получили свое продолжение. Заключительная часть трилогии будет посвящена приключениям героев Жана Рено и Кристиана Клавье во времени, и на этот раз они попадут в одну из самых ярких эпох – время Великой Французской Революции. «Тот самый» качественный французский юмор, по которому скучали, блестящий актерский состав, пронизанный изящной иронией сценарий дают полное основание полагать, что современное прочтение культовых французских картин не оставит равнодушными ценителей жанра, поклонников легендарных актеров и всех любителей первоклассного европейского кино.

Сэмпл
Релиз от группы MegaPeer
Качество видео: HDRip (Исх. Les.Visiteurs.La.Revolution.BDRip.1080p.ExKinoRay)
Формат видео: AVI
Видео: 720x304 (2.37:1), 24 fps, XviD build 73 ~1456 kbps avg, 0.35 bit/pixel
Аудио: AC3, 6 ch, 384 kbps, 48,0 КГц

MediaInfo

ОбщееПолное имя                               : D:\Les.Visiteurs.La.Revolution.HDRip.1.41Gb.MegaPeer.aviФормат                                   : AVIФормат/Информация                        : Audio Video InterleaveРазмер файла                             : 1,41 ГбайтПродолжительность                        : 1 ч. 49 м.Общий поток                              : 1848 Кбит/сек
ВидеоИдентификатор : 0Формат : MPEG-4 VisualПрофиль формата : Advanced Simple@L5Параметр BVOP формата : 1Параметр QPel формата : НетПараметр GMC формата : Без точки переходаПараметр матрицы формата : ВыборочнаяИдентификатор кодека : XVIDИдентификатор кодека/Подсказка : XviDПродолжительность : 1 ч. 49 м.Битрейт : 1456 Кбит/секШирина : 720 пикселейВысота : 304 пикселяСоотношение сторон : 2,35:1Частота кадров : 24,000 кадра/секЦветовое пространство : YUVСубдискретизация насыщенности : 4:2:0Битовая глубина : 8 битТип развёртки : ПрогрессивнаяМетод сжатия : С потерямиБит/(Пиксели*Кадры) : 0.277Размер потока : 1,11 Гбайт (79%)Библиотека кодирования : XviD 73
АудиоИдентификатор : 1Формат : AC-3Формат/Информация : Audio Coding 3Расширение режима : CM (complete main)Параметр Endianness формата : BigИдентификатор кодека : 2000Продолжительность : 1 ч. 49 м.Вид битрейта : ПостоянныйБитрейт : 384 Кбит/секКаналы : 6 каналовРасположение каналов : Front: L C R, Side: L R, LFEЧастота : 48,0 КГцЧастота кадров : 31,250 кадров/сек (1536 spf)Метод сжатия : С потерямиРазмер потока : 301 Мбайт (21%)Выравнивание : Соединение по промежуткамПродолжительность промежутка : 64 мс. (1,54 видеокадра)Время предзагрузки промежутка : 192 мс.Заголовок : iTunes

Скриншоты

[Profile]  [PM] 
Display posts:    
Reply to topic

Current time is: 28-Jan 14:05

All times are UTC + 2



You cannot post new topics in this forum
You cannot reply to topics in this forum
You cannot edit your posts in this forum
You cannot delete your posts in this forum
You cannot vote in polls in this forum
You cannot attach files in this forum
You cannot download files in this forum