Черепашки-ниндзя 2 / Teenage Mutant Ninja Turtles: Out of the Shadows (Дэйв Грин / Dave Green) [2016, США, Гонконг, Китай, Канада, фантастика, боевик, комедия, приключения, BDRip-AVC] Dub + Sub Rus, Eng + Original Eng

Reply to topic
 
Author
Message

Satyr ®

Online

Gender: Unknown

Longevity: 11 years

Posts: 15401

Reputation: 55 [+] [-]

Satyr · Post 16-Sep-2016 04:05

[Quote] 

Черепашки-ниндзя 2 / Teenage Mutant Ninja Turtles: Out of the Shadows«Raise some shell»- Страна: США, Гонконг, Китай, Канада
Жанр: фантастика, боевик, комедия, приключения
Год выпуска: 2016
Продолжительность: 01:52:07-Перевод: Профессиональный (дублированный) BD CEE
Cубтитры: Русские (форс., полные.), Английские (Полные, SDH, SDH Colored)
Оригинальная аудиодорожка: Английская-Режиссер: Дэйв Грин / Dave Green
В ролях: Меган Фокс, Стивен Амелл, Алан Ричсон, Лора Линни, Уилл Арнетт, Ноэль Фишер, Стефен Фаррелли, Алессандра Амброзио, Брэд Гэррет, Тайлер Перри
Описание: Долгое время черепашки-ниндзя скрывались от людей в лабиринтах городской канализации. На протяжении нескольких лет учитель Сплинтер обучал их боевым искусствам и прививал им чувство справедливости. В один прекрасный момент им пришлось подняться наверх, чтобы спасти Нью-Йорк от Шредера, предводителя Клана Футов, захватившего власть в Нью-Йорке. Вместе с отважным репортером Эйприл и ее оператором Верном, бесстрашные воины смогли одержать победу и очистить любимый город от преступности. Леонардо, Микеланджело, Рафаэль и Донателло нашли свое предназначение в этом мире и стали защитниками своего города. Они навели порядок в Нью-Йорке и с чистой совестью могли отправиться на покой, но однажды им вновь пришлось столкнуться с могущественным врагом, угрожающим их городу…- -Качество видео: BDRip-AVC [BDRemux / TMNT_OUT_OF_THE_SHADOWS_REMUX_HDCLUB]
Формат видео: MKV
Видео: AVC, 1152*480 (2.40:1), 3 849 kb/s, 23.976 fps, 0.290 bit/pixel
Аудио 1: AC-3, 48.0 KHz, 448 Kbps, 5.1 ch [Rus]
Аудио 2: AC-3, 48.0 KHz, 448 Kbps, 5.1 ch [Eng]
Формат субтитров: softsub (SRT)

MediaInfo

General
Unique ID : 235358576499482811534188616078182120023 (0xB11069BB57B2D0E8B5F426C7AC70FA57)
Complete name : C:\Movie\Черепашки-ниндзя 2 (Teenage Mutant Ninja Turtles Out of the Shadows) 2016.mkv
Format : Matroska
Format version : Version 4 / Version 2
File size : 3.72 GiB
Duration : 1 h 52 min
Overall bit rate : 4 748 kb/s
Encoded date : UTC 2016-09-14 10:39:58
Writing application : mkvmerge v9.2.0 ('Photograph') 32bit
Writing library : libebml v1.3.3 + libmatroska v1.4.4
Cover : Yes
Attachments : cover.png
Video
ID : 1
Format : AVC
Format/Info : Advanced Video Codec
Format profile : High@L4.1
Format settings, CABAC : Yes
Format settings, ReFrames : 10 frames
Codec ID : V_MPEG4/ISO/AVC
Duration : 1 h 52 min
Bit rate : 3 849 kb/s
Width : 1 152 pixels
Height : 480 pixels
Display aspect ratio : 2.40:1
Frame rate mode : Constant
Frame rate : 23.976 (24000/1001) FPS
Color space : YUV
Chroma subsampling : 4:2:0
Bit depth : 8 bits
Scan type : Progressive
Bits/(Pixel*Frame) : 0.290
Stream size : 3.01 GiB (81%)
Writing library : x264 core 148 r2638 7599210
Encoding settings : cabac=1 / ref=10 / deblock=1:-3:-2 / analyse=0x3:0x133 / me=tesa / subme=11 / psy=1 / psy_rd=1.00:0.00 / mixed_ref=1 / me_range=32 / chroma_me=1 / trellis=2 / 8x8dct=1 / cqm=0 / deadzone=21,11 / fast_pskip=1 / chroma_qp_offset=-2 / threads=6 / lookahead_threads=1 / sliced_threads=0 / nr=0 / decimate=1 / interlaced=0 / bluray_compat=0 / constrained_intra=0 / bframes=12 / b_pyramid=2 / b_adapt=2 / b_bias=0 / direct=3 / weightb=1 / open_gop=0 / weightp=2 / keyint=240 / keyint_min=23 / scenecut=40 / intra_refresh=0 / rc_lookahead=60 / rc=crf / mbtree=1 / crf=17.5 / qcomp=0.60 / qpmin=0 / qpmax=69 / qpstep=4 / vbv_maxrate=62500 / vbv_bufsize=78125 / crf_max=0.0 / nal_hrd=none / filler=0 / ip_ratio=1.40 / aq=1:1.00
Default : Yes
Forced : No
Audio #1
ID : 2
Format : AC-3
Format/Info : Audio Coding 3
Mode extension : CM (complete main)
Format settings, Endianness : Big
Codec ID : A_AC3
Duration : 1 h 52 min
Bit rate mode : Constant
Bit rate : 448 kb/s
Channel(s) : 6 channels
Channel positions : Front: L C R, Side: L R, LFE
Sampling rate : 48.0 kHz
Frame rate : 31.250 FPS (1536 spf)
Compression mode : Lossy
Stream size : 359 MiB (9%)
Title : Dub
Language : Russian
Default : Yes
Forced : No
Audio #2
ID : 3
Format : AC-3
Format/Info : Audio Coding 3
Mode extension : CM (complete main)
Format settings, Endianness : Big
Codec ID : A_AC3
Duration : 1 h 52 min
Bit rate mode : Constant
Bit rate : 448 kb/s
Channel(s) : 6 channels
Channel positions : Front: L C R, Side: L R, LFE
Sampling rate : 48.0 kHz
Frame rate : 31.250 FPS (1536 spf)
Compression mode : Lossy
Stream size : 359 MiB (9%)
Title : Original
Language : English
Default : No
Forced : No
Text #1
ID : 4
Format : UTF-8
Codec ID : S_TEXT/UTF8
Codec ID/Info : UTF-8 Plain Text
Duration : 1 h 41 min
Bit rate : 0 b/s
Count of elements : 11
Stream size : 371 Bytes (0%)
Title : Forced
Language : Russian
Default : Yes
Forced : No
Text #2
ID : 5
Format : UTF-8
Codec ID : S_TEXT/UTF8
Codec ID/Info : UTF-8 Plain Text
Duration : 1 h 43 min
Bit rate : 95 b/s
Count of elements : 1371
Stream size : 72.4 KiB (0%)
Title : Full
Language : Russian
Default : No
Forced : No
Text #3
ID : 6
Format : UTF-8
Codec ID : S_TEXT/UTF8
Codec ID/Info : UTF-8 Plain Text
Duration : 1 h 42 min
Bit rate : 65 b/s
Count of elements : 1591
Stream size : 49.5 KiB (0%)
Title : Full
Language : English
Default : No
Forced : No
Text #4
ID : 7
Format : UTF-8
Codec ID : S_TEXT/UTF8
Codec ID/Info : UTF-8 Plain Text
Duration : 1 h 43 min
Bit rate : 74 b/s
Count of elements : 1879
Stream size : 56.1 KiB (0%)
Title : SDH
Language : English
Default : No
Forced : No
Text #5
ID : 8
Format : UTF-8
Codec ID : S_TEXT/UTF8
Codec ID/Info : UTF-8 Plain Text
Duration : 1 h 43 min
Bit rate : 95 b/s
Count of elements : 1879
Stream size : 72.0 KiB (0%)
Title : SDH Colored
Language : English
Default : No
Forced : No
Menu
00:00:00.000 : :Chapter 01
00:05:55.562 : :Chapter 02
00:12:18.571 : :Chapter 03
00:18:53.507 : :Chapter 04
00:26:38.096 : :Chapter 05
00:33:14.491 : :Chapter 06
00:38:56.457 : :Chapter 07
00:44:11.189 : :Chapter 08
00:49:40.309 : :Chapter 09
00:55:40.627 : :Chapter 10
01:02:01.259 : :Chapter 11
01:04:51.970 : :Chapter 12
01:14:32.759 : :Chapter 13
01:21:18.414 : :Chapter 14
01:28:10.158 : :Chapter 15
01:36:58.229 : :Chapter 16
01:41:52.021 : :Chapter 17
01:46:20.873 : :Chapter 18

x264

x264 [info]: frame I:1464 Avg QP:15.43 size:114964
x264 [info]: frame P:42683 Avg QP:19.87 size: 36616
x264 [info]: frame B:117154 Avg QP:23.22 size: 12849
x264 [info]: consecutive B-frames: 3.9% 4.9% 16.0% 35.0% 16.4% 18.0% 2.0% 1.5% 0.4% 0.2% 1.0% 0.6% 0.2%
x264 [info]: mb I I16..4: 4.8% 68.4% 26.8%
x264 [info]: mb P I16..4: 1.4% 16.3% 2.9% P16..4: 26.1% 31.4% 13.4% 3.0% 0.4% skip: 5.1%
x264 [info]: mb B I16..4: 0.2% 2.7% 0.4% B16..8: 34.3% 22.2% 4.4% direct: 6.2% skip:29.6% L0:39.7% L1:42.6% BI:17.6%
x264 [info]: 8x8 transform intra:78.8% inter:66.8%
x264 [info]: direct mvs spatial:100.0% temporal:0.0%
x264 [info]: coded y,uvDC,uvAC intra: 87.7% 90.3% 71.0% inter: 30.7% 32.3% 12.7%
x264 [info]: i16 v,h,dc,p: 18% 15% 4% 63%
x264 [info]: i8 v,h,dc,ddl,ddr,vr,hd,vl,hu: 7% 8% 4% 10% 15% 14% 15% 12% 15%
x264 [info]: i4 v,h,dc,ddl,ddr,vr,hd,vl,hu: 9% 9% 4% 8% 16% 14% 15% 11% 14%
x264 [info]: i8c dc,h,v,p: 42% 21% 16% 21%
x264 [info]: Weighted P-Frames: Y:8.4% UV:6.8%
x264 [info]: ref P L0: 50.4% 14.1% 15.5% 6.0% 4.1% 3.0% 2.4% 1.5% 1.3% 1.3% 0.4% 0.0%
x264 [info]: ref B L0: 81.7% 8.9% 4.1% 1.9% 1.3% 0.9% 0.7% 0.3% 0.2%
x264 [info]: ref B L1: 94.4% 5.6%
x264 [info]: kb/s:3848.61

Скриншоты

-
[Profile]  [PM] 
Display posts:    
Reply to topic

Current time is: 26-Sep 03:52

All times are UTC + 2



You cannot post new topics in this forum
You cannot reply to topics in this forum
You cannot edit your posts in this forum
You cannot delete your posts in this forum
You cannot vote in polls in this forum
You cannot attach files in this forum
You cannot download files in this forum