Кикбоксер / Kickboxer Vengeance (Джон Стокуэлл / John Stockwell) [2016, США, боевик, WEB-DLRip] MVO + Original + Sub (eng)

Reply to topic
 
Author
Message

Satyr ®

Gender: Unknown

Longevity: 11 years

Posts: 15401

Reputation: 55 [+] [-]

Satyr · Post 16-Sep-2016 04:05

[Quote] 

Кикбоксер / Kickboxer Vengeance
Страна: США
Жанр: боевик
Год выпуска: 2016
Продолжительность: 01:30:23
Перевод: Любительский (многоголосый закадровый) - Студия Пиратского Дубляжа
Cубтитры: Английские (полные)
Оригинальная аудиодорожка: Английский
Режиссер: Джон Стокуэлл / John Stockwell
В ролях: Ален Мусси, Жорж Сен-Пьер, Т.Дж. Сторм, Мэттью Зифф, Сэм Медина, Дэйв Батиста, Сью-Линн Ансари, Даррен Шалави, Джина Карано, Хоун Трэн, Жан-Клод Ван Дамм
Описание: Сюжет разворачивается вокруг братьев из калифорнийской династии бойцов Дэвида и Курта Слоан. Дэвид погибает в одном из поединков в Гонконге. Узнав об этом, Курт едет в Таиланд к своему наставнику, с помощью которого рассчитывает обрести силу воли, чтобы отомстить за смерть брата.
Сэмпл: http://multi-up.com/1116469
Инфорация: Тайская речь не озвучена
Качество видео: WEB-DLRip
Исходник: [Kickboxer.Vengeance.2016.1080p.WEB-DL.DD5.1.H264-FGT]]
Формат видео: AVI
Видео: 720x304 (2.37:1), 23.976 fps, XviD build 65 ~2107 kbps avg, 0.40 bit/pixel
Аудио RUS: 48 kHz, AC3 Dolby Digital, 2/0 (L,R) ch, ~192 kbps
Аудио ENG: 48 kHz, AC3 Dolby Digital, 3/2 (L,C,R,l,r) + LFE ch, ~384 kbps
Формат субтитров: softsub (SRT)

Rip by Ториял для

MediaInfo

Format : AVI
Format/Info : Audio Video Interleave
File size : 1.46 GiB
Duration : 1h 30mn
Overall bit rate : 2 309 Kbps
Writing application : VirtualDubMod 1.5.10.2 (build 2540/release)
Writing library : VirtualDubMod build 2540/release
Video
ID : 0
Format : MPEG-4 Visual
Format profile : Advanced Simple@L5
Format settings, BVOP : 1
Format settings, QPel : No
Format settings, GMC : No warppoints
Format settings, Matrix : Custom
Codec ID : XVID
Codec ID/Hint : XviD
Duration : 1h 30mn
Bit rate : 2 108 Kbps
Width : 720 pixels
Height : 304 pixels
Display aspect ratio : 2.35:1
Frame rate : 23.976 (23976/1000) fps
Color space : YUV
Chroma subsampling : 4:2:0
Bit depth : 8 bits
Scan type : Progressive
Compression mode : Lossy
Bits/(Pixel*Frame) : 0.402
Stream size : 1.33 GiB (91%)
Writing library : XviD 65
Audio
ID : 1
Format : AC-3
Format/Info : Audio Coding 3
Mode extension : CM (complete main)
Format settings, Endianness : Big
Codec ID : 2000
Duration : 1h 30mn
Bit rate mode : Constant
Bit rate : 192 Kbps
Channel(s) : 2 channels
Channel positions : Front: L R
Sampling rate : 48.0 KHz
Frame rate : 31.250 fps (1536 spf)
Compression mode : Lossy
Stream size : 124 MiB (8%)
Alignment : Split accross interleaves
Interleave, duration : 42 ms (1.00 video frame)
Interleave, preload duratio : 500 ms

Скриншоты

[/URL]
[Profile]  [PM] 
Display posts:    
Reply to topic

Current time is: 27-Sep 11:12

All times are UTC + 2



You cannot post new topics in this forum
You cannot reply to topics in this forum
You cannot edit your posts in this forum
You cannot delete your posts in this forum
You cannot vote in polls in this forum
You cannot attach files in this forum
You cannot download files in this forum