Любовь и дружба / Love & Friendship (Уит Стиллман / Whit Stillman) [2016, Ирландия, Нидерланды, Франция, США, Великобритания, Драма, мелодрама, комедия, HDRip] DUB (iTunes)

Reply to topic
 
Author
Message

Satyr ®

Gender: Unknown

Longevity: 15 years

Posts: 22031

Reputation: 56 [+] [-]

Satyr · Post 16-Sep-2016 20:25

[Quote] 

Любовь и дружба / Love & Friendship
«Коварство, лицемерие и откровенное бесстыдство»
Страна: Ирландия, Нидерланды, Франция, США, Великобритания
Жанр: Драма, мелодрама, комедия
Год выпуска: 2016
Продолжительность: 01:33:18
Перевод: Профессиональный (полное дублирование)
Cубтитры: нет
Оригинальная аудиодорожка: нет
Режиссер: Уит Стиллман / Whit Stillman
В ролях: Кейт Бекинсейл, Морфидд Кларк, Том Беннетт, Дженн Мюррэй, Лохлэйнн О’Меарайн, Софи Радермахер, Клоэ Севиньи, Стивен Фрай, Джордан Уоллер, Росс Мак Махон
Описание: Прекрасная молодая вдова леди Сьюзан приезжает в имение семьи покойного мужа переждать, пока в высшем обществе перестанут судачить о ее похождениях, и придумать, как поправить свое финансовое положение. Не теряя времени даром, она решает подыскать богатого мужа себе и своей юной дочери. В ход идут не только красота и обаяние, но и острый насмешливый ум и невероятный талант плести интриги.
Сэмпл: http://multi-up.com/1118145
Качество видео: HDRip
Исходник: Love.and.Friendship.2016.1080p.BluRay.x264-GECKOS
Формат видео: AVI
Видео: 720x384 (1.88:1), 23.976 fps, XviD build 65 ~1845 kbps avg, 0.28 bit/pixel
Аудио RUS: 48 kHz, AC3 Dolby Digital, 3/2 (L,C,R,l,r) + LFE ch, ~384 kbps

Rip by Ториял для

MediaInfo

ormat : AVI
Format/Info : Audio Video Interleave
File size : 1.46 GiB
Duration : 1h 33mn
Overall bit rate : 2 239 Kbps
Writing application : VirtualDubMod 1.5.10.3 | www.virtualdub-fr.org || (build 2550/release)
Writing library : VirtualDubMod build 2550/release
Video
ID : 0
Format : MPEG-4 Visual
Format profile : Advanced Simple@L5
Format settings, BVOP : 1
Format settings, QPel : No
Format settings, GMC : No warppoints
Format settings, Matrix : Custom
Codec ID : XVID
Codec ID/Hint : XviD
Duration : 1h 33mn
Bit rate : 1 846 Kbps
Width : 720 pixels
Height : 384 pixels
Display aspect ratio : 1.85:1
Frame rate : 23.976 (23976/1000) fps
Color space : YUV
Chroma subsampling : 4:2:0
Bit depth : 8 bits
Scan type : Progressive
Compression mode : Lossy
Bits/(Pixel*Frame) : 0.278
Stream size : 1.20 GiB (82%)
Writing library : XviD 65
Audio
ID : 1
Format : AC-3
Format/Info : Audio Coding 3
Mode extension : CM (complete main)
Format settings, Endianness : Big
Codec ID : 2000
Duration : 1h 33mn
Bit rate mode : Constant
Bit rate : 384 Kbps
Channel(s) : 6 channels
Channel positions : Front: L C R, Side: L R, LFE
Sampling rate : 48.0 KHz
Frame rate : 31.250 fps (1536 spf)
Compression mode : Lossy
Stream size : 256 MiB (17%)
Alignment : Split accross interleaves
Interleave, duration : 42 ms (1.00 video frame)
Interleave, preload duratio : 500 ms

Скриншоты

[Profile]  [PM] 
Display posts:    
Reply to topic

Current time is: 19-Jul 04:45

All times are UTC + 2



You cannot post new topics in this forum
You cannot reply to topics in this forum
You cannot edit your posts in this forum
You cannot delete your posts in this forum
You cannot vote in polls in this forum
You cannot attach files in this forum
You cannot download files in this forum