Полтора шпиона / Central Intelligence (Роусон Маршалл Тёрбер / Rawson Marshall Thurber) [2016, США, боевик, комедия, криминал, BDRip] Dub + Original + Sub (rus, eng)

Reply to topic
 
Author
Message

Satyr ®

Gender: Unknown

Longevity: 15 years

Posts: 22031

Reputation: 56 [+] [-]

Satyr · Post 17-Sep-2016 16:50

[Quote] 

Полтора шпиона / Central Intelligence«Они попробуют спасти мир: малыш Харт и скала Джонсон» Страна: США
Жанр: боевик, комедия, криминал
Год выпуска: 2016
Продолжительность: 01:47:38
Перевод: Профессиональный (полное дублирование) - (iTunes Russia)
Cубтитры: Русские (форсированные, полные), Английские (полные,SDH)
Оригинальная аудиодорожка: Английский
Режиссер: Роусон Маршалл Тёрбер / Rawson Marshall Thurber
В ролях: Дуэйн Джонсон, Кевин Харт, Эми Райан, Даниэль Николет, Джейсон Бейтмен, Аарон Пол, Райан Хансен, Тим Гриффин, Тимоти Джон Смит
Описание: От лайка в соцсети до спасения мира - один шаг. Сегодня ты френдишь бывшего одноклассника, а завтра - он тащит тебя под пули. Кто ж знал, что заядлый любитель пончиков превратится в похожего на скалу супершпиона.
Сэмпл: http://multi-up.com/1118292
Качество видео: BDRip
Исходник: CENTRAL_INTELLIGENCE_TC_REMUX_HDCLUB
Формат видео: AVI
Видео: 720x304 (2.37:1), 23.976 fps, XviD build 65 ~1991 kbps avg, 0.38 bit/pixel
Аудио RUS: 48 kHz, AC3 Dolby Digital, 3/2 (L,C,R,l,r) + LFE ch, ~384 kbps - (iTunes Russia)
Аудио ENG: 48 kHz, AC3 Dolby Digital, 3/2 (L,C,R,l,r) + LFE ch, ~448 kbps
Формат субтитров: softsub (SRT)

Rip by Ториял для

MediaInfo

Format : AVI
Format/Info : Audio Video Interleave
Format profile : OpenDML
File size : 2.14 GiB
Duration : 1h 47mn
Overall bit rate : 2 840 Kbps
Writing application : VirtualDubMod 1.5.10.2 (build 2540/release)
Writing library : VirtualDubMod build 2540/release
Video
ID : 0
Format : MPEG-4 Visual
Format profile : Advanced Simple@L5
Format settings, BVOP : 1
Format settings, QPel : No
Format settings, GMC : No warppoints
Format settings, Matrix : Custom
Codec ID : XVID
Codec ID/Hint : XviD
Duration : 1h 47mn
Bit rate : 1 990 Kbps
Width : 720 pixels
Height : 304 pixels
Display aspect ratio : 2.35:1
Frame rate : 23.976 (23976/1000) fps
Color space : YUV
Chroma subsampling : 4:2:0
Bit depth : 8 bits
Scan type : Progressive
Compression mode : Lossy
Bits/(Pixel*Frame) : 0.379
Stream size : 1.50 GiB (70%)
Writing library : XviD 65
Audio #1
ID : 1
Format : AC-3
Format/Info : Audio Coding 3
Mode extension : CM (complete main)
Format settings, Endianness : Big
Codec ID : 2000
Duration : 1h 47mn
Bit rate mode : Constant
Bit rate : 384 Kbps
Channel(s) : 6 channels
Channel positions : Front: L C R, Side: L R, LFE
Sampling rate : 48.0 KHz
Frame rate : 31.250 fps (1536 spf)
Compression mode : Lossy
Stream size : 295 MiB (14%)
Alignment : Split accross interleaves
Interleave, duration : 42 ms (1.00 video frame)
Interleave, preload duratio : 500 ms
Audio #2
ID : 2
Format : AC-3
Format/Info : Audio Coding 3
Mode extension : CM (complete main)
Format settings, Endianness : Big
Codec ID : 2000
Duration : 1h 47mn
Bit rate mode : Constant
Bit rate : 448 Kbps
Channel(s) : 6 channels
Channel positions : Front: L C R, Side: L R, LFE
Sampling rate : 48.0 KHz
Frame rate : 31.250 fps (1536 spf)
Compression mode : Lossy
Stream size : 345 MiB (16%)
Alignment : Split accross interleaves
Interleave, duration : 42 ms (1.00 video frame)
Interleave, preload duratio : 500 ms

Скриншоты

[Profile]  [PM] 
Display posts:    
Reply to topic

Current time is: 19-Jul 05:30

All times are UTC + 2



You cannot post new topics in this forum
You cannot reply to topics in this forum
You cannot edit your posts in this forum
You cannot delete your posts in this forum
You cannot vote in polls in this forum
You cannot attach files in this forum
You cannot download files in this forum