Полтора шпиона / Central Intelligence (Роусон Маршалл Тёрбер / Rawson Marshall Thurber) [2016, США, комедия, криминал, BDRip] Dub

Reply to topic
 
Author
Message

Satyr ®

Gender: Unknown

Longevity: 11 years

Posts: 15401

Reputation: 55 [+] [-]

Satyr · Post 17-Sep-2016 16:50

[Quote] 

Полтора шпиона / Central Intelligence
Страна: США
Студия: New Line Cinema, Bluegrass Films, Principato-Young Entertainment
Жанр: Комедия, криминал
Год выпуска: 2016
Продолжительность: 01:47:37
Перевод: Профессиональный (дублированный) | iTunes
Cубтитры: Русские на надписи и пр. - (вшитые)
Режиссер: Роусон Маршалл Тёрбер / Rawson Marshall Thurber
В ролях: Дуэйн Джонсон, Кевин Харт, Эми Райан, Даниэль Николет, Джейсон Бейтмен, Аарон Пол, Райан Хансен, Тим Гриффин, Тимоти Джон Смит
Описание: От лайка в соцсети до спасения мира - один шаг. Сегодня ты френдишь бывшего одноклассника, а завтра - он тащит тебя под пули. Кто ж знал, что заядлый любитель пончиков превратится в похожего на скалу супершпиона.

Сэмпл
Релиз от группы MegaPeer
Качество видео: BDRip (Исх. Central.Intelligence.2016.BDREMUX.1080p.ExKinoRay)
Формат видео: AVI
Видео: 688x288 (2.39:1), 23.976 fps, XviD build 73 ~837 kbps avg, 0.18 bit/pixel
Аудио: 48 kHz, MPEG Layer 3, 2 ch, ~128.00 kbps avg

MediaInfo

ОбщееПолное имя                               : D:\Central.Intelligence.2016.BDRip.745MB.MegaPeer.aviФормат                                   : AVIФормат/Информация                        : Audio Video InterleaveРазмер файла                             : 748 МбайтПродолжительность                        : 1 ч. 47 м.Общий поток                              : 971 Кбит/сек
ВидеоИдентификатор : 0Формат : MPEG-4 VisualПрофиль формата : Advanced Simple@L5Параметр BVOP формата : 1Параметр QPel формата : НетПараметр GMC формата : Без точки переходаПараметр матрицы формата : ВыборочнаяИдентификатор кодека : XVIDИдентификатор кодека/Подсказка : XviDПродолжительность : 1 ч. 47 м.Битрейт : 838 Кбит/секШирина : 688 пикселейВысота : 288 пикселейСоотношение сторон : 2,40:1Частота кадров : 23,976 (24000/1001) кадра/секЦветовое пространство : YUVСубдискретизация насыщенности : 4:2:0Битовая глубина : 8 битТип развёртки : ПрогрессивнаяМетод сжатия : С потерямиБит/(Пиксели*Кадры) : 0.176Размер потока : 645 Мбайт (86%)Библиотека кодирования : XviD 73
АудиоИдентификатор : 1Формат : MPEG AudioВерсия формата : Version 1Профиль формата : Layer 3Режим : Joint stereoРасширение режима : MS StereoИдентификатор кодека : 55Идентификатор кодека/Подсказка : MP3Продолжительность : 1 ч. 47 м.Вид битрейта : ПостоянныйБитрейт : 128 Кбит/секКаналы : 2 каналаЧастота : 48,0 КГцМетод сжатия : С потерямиРазмер потока : 98,4 Мбайт (13%)Выравнивание : Соединение по промежуткамПродолжительность промежутка : 167 мс. (4,00 видеокадра)Время предзагрузки промежутка : 216 мс.Заголовок : iTunesБиблиотека кодирования : LAME3.99rНастройки программы : -m j -V 4 -q 2 -lowpass 17 -b 128

Скриншоты

[Profile]  [PM] 
Display posts:    
Reply to topic

Current time is: 28-Jan 14:21

All times are UTC + 2



You cannot post new topics in this forum
You cannot reply to topics in this forum
You cannot edit your posts in this forum
You cannot delete your posts in this forum
You cannot vote in polls in this forum
You cannot attach files in this forum
You cannot download files in this forum