Полтора шпиона / Central Intelligence (Роусон Маршалл Тёрбер / Rawson Marshall Thurber) [2016, США, боевик, комедия, криминал, BDRip-AVC] Dub + Original + Sub (rus, eng)

Reply to topic
 
Author
Message

Satyr ®

Gender: Unknown

Longevity: 11 years

Posts: 15401

Reputation: 55 [+] [-]

Satyr · Post 17-Sep-2016 16:50

[Quote] 

Полтора шпиона / Central Intelligence
«Они попробуют спасти мир: малыш Харт и скала Джонсон»
- Страна: США
Жанр: боевик, комедия, криминал
Год выпуска: 2016
Продолжительность: 01:47:38
Перевод: Профессиональный (дублированный) (iTunes)
Оригинальная аудиодорожка: английский
Cубтитры: русские (форс., полные) английские (полные, SDH)
Навигация по главам: есть
Режиссер: Роусон Маршалл Тёрбер / Rawson Marshall Thurber
В ролях: Дуэйн Джонсон, Кевин Харт, Эми Райан, Даниэль Николет, Джейсон Бейтмен, Аарон Пол, Райан Хансен, Тим Гриффин, Тимоти Джон Смит
Описание: от лайка в соцсети до спасения мира - один шаг. Сегодня ты френдишь бывшего одноклассника, а завтра - он тащит тебя под пули. Кто ж знал, что заядлый любитель пончиков превратится в похожего на скалу супершпиона.- -Качество: BDRip-AVC (исходник - BDRemux|CENTRAL_INTELLIGENCE_TC_REMUX_HDCLUB)
Формат видео: MKV
Видео: x264, 1080x450 (2.40:1), 23,976 fps, ~2196 kbps, 0.188 bit/pixel
Аудио 1: 48 kHz, AC3 Dolby Digital, 3/2 (L,C,R,l,r) + LFE ch, ~384 kbps [русский]
Аудио 2: 48 kHz, AC3 Dolby Digital, 2/0 (L,R), ~192 kbps [английский]
Формат субтитров: softsub (SRT)-

MediaInfo | x264 log

Format : Matroska
Format version : Version 4 / Version 2
File size : 2.13 GiB
Duration : 1h 47mn
Overall bit rate : 2 828 Kbps
Movie name : Полтора шпиона / Central Intelligence (2016) :: AFM ::
Encoded date : UTC 2016-09-15 16:18:32
Writing application : mkvmerge v8.3.0 ('Over the Horizon') 32bit
Writing library : libebml v1.3.1 + libmatroska v1.4.2
Video
ID : 1
Format : AVC
Format/Info : Advanced Video Codec
Format profile : High@L4.1
Format settings, CABAC : Yes
Format settings, ReFrames : 11 frames
Codec ID : V_MPEG4/ISO/AVC
Duration : 1h 47mn
Bit rate : 2 196 Kbps
Width : 1 080 pixels
Height : 450 pixels
Display aspect ratio : 2.40:1
Frame rate mode : Constant
Frame rate : 23.976 fps
Color space : YUV
Chroma subsampling : 4:2:0
Bit depth : 8 bits
Scan type : Progressive
Bits/(Pixel*Frame) : 0.188
Stream size : 1.65 GiB (78%)
Title : BDRip by AFM [torrentsland.com.ua]
Writing library : x264 core 148 r2705+54 9f484c1 t_mod_Custom [8-bit@all X86_64]
Encoding settings : cabac=1 / ref=11 / deblock=1:-2:-2 / analyse=0x3:0x113 / me=umh / subme=10 / psy=1 / fade_compensate=0.00 / psy_rd=1.00:0.00 / mixed_ref=1 / me_range=32 / chroma_me=1 / trellis=2 / 8x8dct=1 / cqm=0 / deadzone=21,11 / fast_pskip=0 / chroma_qp_offset=-2 / threads=6 / lookahead_threads=1 / sliced_threads=0 / nr=0 / decimate=1 / interlaced=0 / bluray_compat=0 / constrained_intra=0 / fgo=0 / bframes=12 / b_pyramid=2 / b_adapt=2 / b_bias=0 / direct=1 / weightb=1 / open_gop=0 / weightp=2 / keyint=250 / keyint_min=23 / scenecut=40 / intra_refresh=0 / rc_lookahead=40 / rc=crf / mbtree=0 / crf=17.9000 / qcomp=0.65 / qpmin=0:0:0 / qpmax=69:69:69 / qpstep=4 / vbv_maxrate=50000 / vbv_bufsize=62500 / crf_max=0.0 / nal_hrd=none / filler=0 / ip_ratio=1.30 / pb_ratio=1.27 / aq=3:0.80 / aq-sensitivity=10.00 / aq-factor=1.00:1.00:1.00 / aq2=0 / aq3=0 / zones=148345,154834,q=30
Language : English
Default : Yes
Forced : No
Audio #1
ID : 2
Format : AC-3
Format/Info : Audio Coding 3
Mode extension : CM (complete main)
Format settings, Endianness : Big
Codec ID : A_AC3
Duration : 1h 47mn
Bit rate mode : Constant
Bit rate : 384 Kbps
Channel(s) : 6 channels
Channel positions : Front: L C R, Side: L R, LFE
Sampling rate : 48.0 KHz
Compression mode : Lossy
Stream size : 296 MiB (14%)
Title : Dub, AC3 5.1 ~384 kbps
Language : Russian
Default : Yes
Forced : No
Audio #2
ID : 3
Format : AC-3
Format/Info : Audio Coding 3
Mode extension : CM (complete main)
Format settings, Endianness : Big
Codec ID : A_AC3
Duration : 1h 47mn
Bit rate mode : Constant
Bit rate : 192 Kbps
Channel(s) : 2 channels
Channel positions : Front: L R
Sampling rate : 48.0 KHz
Compression mode : Lossy
Stream size : 148 MiB (7%)
Title : Original, AC3 2.0 ~192 kbps
Language : English
Default : No
Forced : No
Text #1
ID : 4
Format : UTF-8
Codec ID : S_TEXT/UTF8
Codec ID/Info : UTF-8 Plain Text
Title : forced
Language : Russian
Default : Yes
Forced : No
Text #2
ID : 5
Format : UTF-8
Codec ID : S_TEXT/UTF8
Codec ID/Info : UTF-8 Plain Text
Language : Russian
Default : No
Forced : No
Text #3
ID : 6
Format : UTF-8
Codec ID : S_TEXT/UTF8
Codec ID/Info : UTF-8 Plain Text
Language : English
Default : No
Forced : No
Text #4
ID : 7
Format : UTF-8
Codec ID : S_TEXT/UTF8
Codec ID/Info : UTF-8 Plain Text
Title : SDH
Language : English
Default : No
Forced : No
Menu
00:00:00.000 : en:Chapter 1
00:09:12.051 : en:Chapter 2
00:20:11.751 : en:Chapter 3
00:30:31.078 : en:Chapter 4
00:43:21.764 : en:Chapter 5
00:52:42.492 : en:Chapter 6
00:58:09.860 : en:Chapter 7
01:10:12.457 : en:Chapter 8
01:18:36.752 : en:Chapter 9
01:28:56.287 : en:Chapter 10
01:39:32.256 : en:Chapter 11

x264

x264 [info]: frame I:1739 Avg QP:17.10 size: 63214
x264 [info]: frame P:33191 Avg QP:18.31 size: 25371
x264 [info]: frame B:119904 Avg QP:20.64 size: 7207
x264 [info]: consecutive B-frames: 2.4% 2.2% 5.8% 27.1% 18.0% 30.6% 5.3% 4.1% 0.8% 2.9% 0.2% 0.5% 0.3%
x264 [info]: mb I I16..4: 4.7% 74.0% 21.3%
x264 [info]: mb P I16..4: 0.9% 11.9% 2.6% P16..4: 34.2% 28.6% 15.9% 0.0% 0.0% skip: 5.9%
x264 [info]: mb B I16..4: 0.1% 1.0% 0.3% B16..8: 38.7% 12.6% 3.7% direct: 4.4% skip:39.3% L0:42.8% L1:44.9% BI:12.3%
x264 [info]: 8x8 transform intra:75.8% inter:63.3%
x264 [info]: coded y,uvDC,uvAC intra: 86.8% 82.8% 61.3% inter: 22.1% 16.3% 3.6%
x264 [info]: i16 v,h,dc,p: 28% 23% 5% 43%
x264 [info]: i8 v,h,dc,ddl,ddr,vr,hd,vl,hu: 17% 12% 7% 8% 12% 12% 11% 10% 11%
x264 [info]: i4 v,h,dc,ddl,ddr,vr,hd,vl,hu: 27% 9% 3% 8% 12% 12% 11% 9% 10%
x264 [info]: i8c dc,h,v,p: 34% 28% 23% 15%
x264 [info]: Weighted P-Frames: Y:3.6% UV:2.2%
x264 [info]: ref P L0: 48.1% 11.1% 16.3% 6.2% 5.2% 3.6% 3.3% 1.7% 1.7% 1.3% 1.4% 0.1% 0.0%
x264 [info]: ref B L0: 74.4% 10.8% 5.5% 2.8% 2.0% 1.6% 1.2% 0.8% 0.5% 0.3%
x264 [info]: ref B L1: 94.2% 5.8%
x264 [info]: kb/s:2249.80

Скриншоты

с названием

[Profile]  [PM] 
Display posts:    
Reply to topic

Current time is: 22-Jan 15:28

All times are UTC + 2



You cannot post new topics in this forum
You cannot reply to topics in this forum
You cannot edit your posts in this forum
You cannot delete your posts in this forum
You cannot vote in polls in this forum
You cannot attach files in this forum
You cannot download files in this forum