Ночной психолог 1,2 / Emma nach Mitternacht 1,2 (Торстен С. Фишер / Torsten C. Fischer) [2016, Германия, криминал, детектив, HDTVRip] DVO (ViruseProject)

Reply to topic
 
Author
Message

Satyr ®

Gender: Unknown

Longevity: 11 years

Posts: 15401

Reputation: 55 [+] [-]

Satyr · Post 18-Sep-2016 17:30

[Quote] 

Ночной психолог / Emma nach Mitternacht
Год выпуска: 2016
Страна: Германия
Жанр: криминал, детектив
Продолжительность 1: 01:28:57
Продолжительность 2: 01:28:48
Перевод: Любительский (двухголосый закадровый) ViruseProject
Субтитры: нет
Режиссёр: Торстен С. Фишер / Torsten C. Fischer
В ролях: Катя Риман, Бен Беккер, Флориана Даниэль, Каролина Эйхгорн, Мехтильд Гроссманн и др.
Описание 1-го фильма: После нескольких лет странствий по миру Эмма Майер решает осесть в немецком Мангейме. Она надеется получить место на радио-передаче «Ночной психолог», где сможет помочь советом радиослушателям. Всё оказывается не так, как она себе представляла. В первом же ее эфире поступает звонок от неизвестного, утверждающего, что он захватил заложников на автозаправке и грозится их всех убить. Недолго думая, Эмма вместе с шеф-редактором спешит в самую гущу событий, чтобы начать с преступником переговоры. Их результаты непредсказуемы…
Описание 2-го фильма: После первого успеха психолог Эмма Майер получает на радио собственную передачу. Вскоре ей придётся спасать от самой себя фрау Холль, чьё чувство вины настолько сильно, что она готова покончить жизнь самоубийством.
Релиз без рекламы.



скачать СЕМПЛ с multi-up
Качество: HDTVRip
Формат: AVI
Видео кодек: XviD
Аудио кодек: AC3
Видео: 720x400 (1.80:1), 25 fps, XviD build 50 ~2237 kbps avg, 0.31 bit/pixel
Аудио: 48 kHz, AC3 Dolby Digital, 2/0 (L,R) ch, ~192 kbps

MediaInfo 1

General
Complete name : D:\Emma.nach.Mitternacht.E01.2016.ViruseProject.avi
Format : AVI
Format/Info : Audio Video Interleave
File size : 1.51 GiB
Duration : 1 h 28 min
Overall bit rate : 2 440 kb/s
Writing application : VirtualDubMod 1.5.10.2 (build 2540/release)
Writing library : VirtualDub build 35491/release
Video
ID : 0
Format : MPEG-4 Visual
Format profile : Advanced Simple@L5
Format settings, BVOP : 1
Format settings, QPel : No
Format settings, GMC : No warppoints
Format settings, Matrix : Default (MPEG)
Codec ID : XVID
Codec ID/Hint : XviD
Duration : 1 h 28 min
Bit rate : 2 238 kb/s
Width : 720 pixels
Height : 400 pixels
Display aspect ratio : 16:9
Frame rate : 25.000 FPS
Color space : YUV
Chroma subsampling : 4:2:0
Bit depth : 8 bits
Scan type : Progressive
Compression mode : Lossy
Bits/(Pixel*Frame) : 0.311
Stream size : 1.38 GiB (92%)
Writing library : XviD 1.2.1 (UTC 2008-12-04)
Audio
ID : 1
Format : AC-3
Format/Info : Audio Coding 3
Mode extension : CM (complete main)
Format settings, Endianness : Big
Codec ID : 2000
Duration : 1 h 28 min
Bit rate mode : Constant
Bit rate : 192 kb/s
Channel(s) : 2 channels
Channel positions : Front: L R
Sampling rate : 48.0 kHz
Frame rate : 31.250 FPS (1536 spf)
Compression mode : Lossy
Stream size : 122 MiB (8%)
Alignment : Aligned on interleaves
Interleave, duration : 40 ms (1.00 video frame)
Interleave, preload duratio : 512 ms

MediaInfo 2

General
Complete name : D:\Emma.nach.Mitternacht.E02.2016.ViruseProject.avi
Format : AVI
Format/Info : Audio Video Interleave
File size : 1.46 GiB
Duration : 1 h 28 min
Overall bit rate : 2 357 kb/s
Writing application : VirtualDubMod 1.5.10.2 (build 2540/release)
Writing library : VirtualDub build 35491/release
Video
ID : 0
Format : MPEG-4 Visual
Format profile : Advanced Simple@L5
Format settings, BVOP : 1
Format settings, QPel : No
Format settings, GMC : No warppoints
Format settings, Matrix : Default (MPEG)
Codec ID : XVID
Codec ID/Hint : XviD
Duration : 1 h 28 min
Bit rate : 2 155 kb/s
Width : 720 pixels
Height : 400 pixels
Display aspect ratio : 16:9
Frame rate : 25.000 FPS
Color space : YUV
Chroma subsampling : 4:2:0
Bit depth : 8 bits
Scan type : Progressive
Compression mode : Lossy
Bits/(Pixel*Frame) : 0.299
Stream size : 1.34 GiB (91%)
Writing library : XviD 1.2.1 (UTC 2008-12-04)
Audio
ID : 1
Format : AC-3
Format/Info : Audio Coding 3
Mode extension : CM (complete main)
Format settings, Endianness : Big
Codec ID : 2000
Duration : 1 h 28 min
Bit rate mode : Constant
Bit rate : 192 kb/s
Channel(s) : 2 channels
Channel positions : Front: L R
Sampling rate : 48.0 kHz
Frame rate : 31.250 FPS (1536 spf)
Compression mode : Lossy
Stream size : 122 MiB (8%)
Alignment : Aligned on interleaves
Interleave, duration : 40 ms (1.00 video frame)
Interleave, preload duratio : 512 ms

Скриншоты

[Profile]  [PM] 
Display posts:    
Reply to topic

Current time is: 22-Jan 15:30

All times are UTC + 2



You cannot post new topics in this forum
You cannot reply to topics in this forum
You cannot edit your posts in this forum
You cannot delete your posts in this forum
You cannot vote in polls in this forum
You cannot attach files in this forum
You cannot download files in this forum