Последняя минута / Äkkilähtö (Тийна Люми / Tiina Lymi) [2016, Финляндия, мелодрама, комедия, BDRip] AVO (Карповский)

Reply to topic
 
Author
Message

Satyr ®

Gender: Unknown

Longevity: 11 years

Posts: 15401

Reputation: 55 [+] [-]

Satyr · Post 20-Sep-2016 10:20

[Quote] 

Последняя минута / Äkkilähtö
Страна: Финляндия
Студия: Solar Films
Жанр: Мелодрама, комедия
Год выпуска: 2016
Продолжительность: 01:38:41
Перевод: Авторский (одноголосый закадровый) Антон Карповский
Cубтитры: нет
Оригинальная аудиодорожка: нет
Режиссер: Тийна Люми / Tiina Lymi
В ролях: Лотта Кайхю, Веера В. Вило, Юсси Ватанен, Иина Куустонен, Рупи Олениус, Вилле Тиихонен, Антти Холма, Эмилия Синисало, Мария Пакален, Джарно Пимпери
Описание: Женщина-риэлтор Катри (Lotta Kaihua) собирается в отпуск с подружками, но жених неожиданно делает ей предложение! И вот оно - женское счастье уже так близко! Но придя в гости к жениху, она обнаруживает там каких -то посторонних людей, сам жених на её глазах увозит свою уже сильно беременную любовницу в роддом, оставив в квартире сумку с кучей Евро.... Катри хватает сумку с деньгами у пускается наутёк, но к ней цепляется соседская девочка-подросток, мать которой попала в больницу от передоза, а тиран-отчим ведет себя крайне неадекватно. В результате, начинается безумная погоня отчима и жениха за Катри, девочкой и сумкой денег...
Дополнительная информация:
Автор релиза - ylnian
Заказ перевода у Антона Карповского (август 2016) - ylnian
За сборку дороги спасибо rammzez
Источник для рипа - Blu-Ray (FIN) - Äkkilähtö.2016.1080p.Blu-ray.AVC.DTS-HD.MA 5.1-HUBAA
Описание - из рецензии Антона Карповского
Внимание! В переводе присутствует ненормативная лексика!


Сэмпл: https://yadi.sk/i/NVbTdStNvNY3M
Качество видео: BDRip
Формат видео: AVI
Видео: XviD, 688x288 (2,40:1), 23.976 fps, 926 kbps, 0.195 bit/pixel
Аудио: Русский MP3, 48000 Гц, 2ch, 128 kbps

MediaInfo

Общее
Полное имя : D:\Akkilahto.2016.BDRip.750mb-ylnian.avi
Формат : AVI
Формат/Информация : Audio Video Interleave
Размер файла : 750 Мбайт
Продолжительность : 1 ч. 38 м.
Общий поток : 1063 Кбит/сек
Программа кодирования : VirtualDubMod 1.5.10.2 (build 2540/release)
Библиотека кодирования : VirtualDubMod build 2540/release
Видео
Идентификатор : 0
Формат : MPEG-4 Visual
Профиль формата : Advanced Simple@L5
Параметр BVOP формата : 1
Параметр QPel формата : Нет
Параметр GMC формата : Без точки перехода
Параметр матрицы формата : Default (MPEG)
Идентификатор кодека : XVID
Идентификатор кодека/Подсказка : XviD
Продолжительность : 1 ч. 38 м.
Битрейт : 926 Кбит/сек
Ширина : 688 пикселей
Высота : 288 пикселей
Соотношение сторон : 2,40:1
Частота кадров : 23,976 (24000/1001) кадра/сек
Цветовое пространство : YUV
Субдискретизация насыщенности : 4:2:0
Битовая глубина : 8 бит
Тип развёртки : Прогрессивная
Метод сжатия : С потерями
Бит/(Пиксели*Кадры) : 0.195
Размер потока : 653 Мбайт (87%)
Библиотека кодирования : XviD 67
Аудио
Идентификатор : 1
Формат : MPEG Audio
Версия формата : Version 1
Профиль формата : Layer 3
Идентификатор кодека : 55
Идентификатор кодека/Подсказка : MP3
Продолжительность : 1 ч. 38 м.
Вид битрейта : Постоянный
Битрейт : 128 Кбит/сек
Каналы : 2 канала
Частота : 48,0 КГц
Метод сжатия : С потерями
Размер потока : 90,3 Мбайт (12%)
Выравнивание : Соединение по промежуткам
Продолжительность промежутка : 42 мс. (1,00 видеокадр)
Время предзагрузки промежутка : 504 мс.
Заголовок : RUS - AVO - Karpovsky
Библиотека кодирования : LAME3.99r
Настройки программы : -m s -V 4 -q 9 -lowpass 17 -b 128

Скриншот c названием фильма

Скриншоты

[Profile]  [PM] 
Display posts:    
Reply to topic

Current time is: 22-Jan 13:49

All times are UTC + 2



You cannot post new topics in this forum
You cannot reply to topics in this forum
You cannot edit your posts in this forum
You cannot delete your posts in this forum
You cannot vote in polls in this forum
You cannot attach files in this forum
You cannot download files in this forum