Алиса в Зазеркалье / Alice Through the Looking Glass (Джеймс Бобин) [2016 г., Фэнтези, приключения, семейный, WEB-DL 720p]|iTunes|

Reply to topic
 
Author
Message

groozin ®

Gender: Male

Longevity: 7 years 10 months

Posts: 45

Reputation: 0 [+] [-]

Location: ЛНР

groozin · Post 20-Sep-2016 11:55

[Quote] 

Алиса в Зазеркалье
/ Alice Through the Looking Glass
-«Весна - самое время сойти с ума»-
Год выпуска: 2016
Страна: США / Legend3D, Roth Films, Team Todd, Tim Burton Productions, Walt Disney Pictures
Жанр: Фэнтези, приключения, семейный
Продолжительность: 01:53:19
Перевод: Дублированный |iTunes|
Режиссер: Джеймс Бобин
В ролях: Миа Васиковска, Джонни Депп, Клаудио Энкарнасьон Монтеро, Саша Барон Коэн, Энн Хэтэуэй, Хелена Бонем Картер, Алан Рикман, Эндрю Скотт, Майкл Шин, Рис Иванс

Описание:
Победив огнедышащего дракона Бармаглота и свергнув с трона Красную Королеву, Алиса возвращается в свой родной мир. Три года она плавает по китайским морям в звании капитана корабля "Чудо", перевозя торговые грузы и занимаясь делами компании своего покойного отца, Чарльза Кингсли. Но вскоре ей предстоит вновь с головой окунуться в водоворот захватывающих приключений и ярких красок дневного свечения, опередив само время, чтобы спасти своего лучшего друга, Сумасшедшего Шляпника.
- -

MediaInfo:

Общее
Уникальный идентификатор : 194950395342420501628695867664727146946 (0x92AA14957CFE4DCFABAE7DCE6B2E01C2)
Полное имя : E:\TORRENTY\Films\Alisa.V.Zazerkal'e.2016.WEB-DL.720p\Alisa.V.Zazerkal'e.2016.WEB-DL.720p\Alisa.V.Zazerkal'e.2016.WEB-DL.720p.mkv
Формат : Matroska
Версия формата : Version 2
Размер файла : 3,89 Гбайт
Продолжительность : 1 ч. 53 м.
Общий поток : 4920 Кбит/сек
Название фильма : Alice Through the Looking Glass (2016)
Дата кодирования : UTC 2016-09-19 19:07:43
Программа кодирования : mkvmerge v3.4.0 ('Rapunzel') built on May 15 2010 09:38:20
Библиотека кодирования : libebml v0.8.0 + libmatroska v0.9.0
Видео
Идентификатор : 1
Формат : AVC
Формат/Информация : Advanced Video Codec
Профиль формата : High@L3.1
Параметр CABAC формата : Нет
Параметр ReFrames формата : 2 кадра
Идентификатор кодека : V_MPEG4/ISO/AVC
Продолжительность : 1 ч. 53 м.
Ширина : 1280 пикселей
Высота : 692 пикселя
Соотношение сторон : 1,85:1
Режим частоты кадров : Постоянный
Частота кадров : 24,000 кадра/сек
Цветовое пространство : YUV
Субдискретизация насыщенности : 4:2:0
Битовая глубина : 8 бит
Тип развёртки : Прогрессивная
Заголовок : Alice Through the Looking Glass (2016)
Язык : English
Default : Да
Forced : Нет
Цветовой диапазон : Limited
Основные цвета : BT.709
Характеристики трансфера : BT.709
Коэффициенты матрицы : BT.709
Аудио #1
Идентификатор : 2
Формат : AC-3
Формат/Информация : Audio Coding 3
Расширение режима : CM (complete main)
Параметр Endianness формата : Big
Идентификатор кодека : A_AC3
Продолжительность : 1 ч. 53 м.
Вид битрейта : Постоянный
Битрейт : 384 Кбит/сек
Каналы : 6 каналов
Расположение каналов : Front: L C R, Side: L R, LFE
Частота : 48,0 КГц
Частота кадров : 31,250 кадров/сек (1536 spf)
Метод сжатия : С потерями
Размер потока : 311 Мбайт (8%)
Заголовок : AC3 5.1 @ 384 kbps - DUB, iTunes
Язык : Russian
Default : Да
Forced : Нет
Аудио #2
Идентификатор : 3
Формат : AAC
Формат/Информация : Advanced Audio Codec
Профиль формата : LC
Идентификатор кодека : A_AAC
Продолжительность : 1 ч. 53 м.
Каналы : 2 канала
Расположение каналов : Front: L R
Частота : 48,0 КГц
Частота кадров : 46,875 кадров/сек (1024 spf)
Метод сжатия : С потерями
Заголовок : AAC 2.0 @ 160 kbps - DUB, iTunes
Язык : Ukrainian
Default : Нет
Forced : Нет
Аудио #3
Идентификатор : 4
Формат : AC-3
Формат/Информация : Audio Coding 3
Расширение режима : CM (complete main)
Параметр Endianness формата : Big
Идентификатор кодека : A_AC3
Продолжительность : 1 ч. 53 м.
Вид битрейта : Постоянный
Битрейт : 384 Кбит/сек
Каналы : 6 каналов
Расположение каналов : Front: L C R, Side: L R, LFE
Частота : 48,0 КГц
Частота кадров : 31,250 кадров/сек (1536 spf)
Метод сжатия : С потерями
Размер потока : 311 Мбайт (8%)
Заголовок : AC3 5.1 @ 384 kbps
Язык : English
Default : Нет
Forced : Нет
Текст #1
Идентификатор : 5
Формат : UTF-8
Идентификатор кодека : S_TEXT/UTF8
Идентификатор кодека/Информация : UTF-8 Plain Text
Заголовок : Forced, iTunes
Язык : Russian
Default : Да
Forced : Нет
Текст #2
Идентификатор : 6
Формат : UTF-8
Идентификатор кодека : S_TEXT/UTF8
Идентификатор кодека/Информация : UTF-8 Plain Text
Заголовок : iTunes
Язык : Russian
Default : Нет
Forced : Нет
Текст #3
Идентификатор : 7
Формат : UTF-8
Идентификатор кодека : S_TEXT/UTF8
Идентификатор кодека/Информация : UTF-8 Plain Text
Заголовок : Forced, iTunes
Язык : Ukrainian
Default : Нет
Forced : Нет
Текст #4
Идентификатор : 8
Формат : UTF-8
Идентификатор кодека : S_TEXT/UTF8
Идентификатор кодека/Информация : UTF-8 Plain Text
Заголовок : Forced, iTunes
Язык : English
Default : Нет
Forced : Нет
Текст #5
Идентификатор : 9
Формат : UTF-8
Идентификатор кодека : S_TEXT/UTF8
Идентификатор кодека/Информация : UTF-8 Plain Text
Заголовок : iTunes
Язык : English
Default : Нет
Forced : Нет
Меню
00:00:00.000 : en:Navigating The Wonder
00:04:32.000 : en:Return Home
00:07:24.000 : en:Canceled Plans
00:12:07.000 : en:Through The Looking Glass
00:16:39.000 : en:Old Friends
00:22:47.000 : en:Chronosphere
00:24:59.000 : en:Time's Castle
00:30:17.000 : en:The Grand Clock
00:35:30.000 : en:Arrival Of The Red Queen
00:41:32.000 : en:Ocean Of Time
00:45:20.000 : en:Coronation
00:51:35.000 : en:Warning The Hatter
00:54:11.000 : en:Tea Party With Time
00:57:40.000 : en:Tart Trouble
01:04:18.000 : en:"The Stroke Of Six"
01:09:18.000 : en:Escape From The Asylum
01:12:45.000 : en:Horunvendush Day
01:18:07.000 : en:Red Queen's Lair
01:23:20.000 : en:Changing The Past
01:27:34.000 : en:Running Out Of Time
01:32:16.000 : en:Family Reunion
01:36:40.000 : en:Goodbyes
01:40:13.000 : en:Setting Sail
01:43:14.000 : en:End Credits
Качество: WEB-DL (720p)
Формат: mkv
Данные видео: 1280x692, MPEG4 AVC, ~4000 Kbps, 24,000 fps
Аудио#1: русский: AC3, 384 Kbps, 6 ch, 48 kHz
Аудио#2: украинский: AAC, 157 Kbps, 2 ch, 48 kHz
Аудио#3: английский: AC3, 384 Kbps, 6 ch, 48 kHz

Субтитры: Русские, украинские, английские (UTF-8)

Скриншоты


[Profile]  [PM] 
Display posts:    
Reply to topic

Current time is: 25-Jul 05:17

All times are UTC + 2



You cannot post new topics in this forum
You cannot reply to topics in this forum
You cannot edit your posts in this forum
You cannot delete your posts in this forum
You cannot vote in polls in this forum
You cannot attach files in this forum
You cannot download files in this forum