Йоганутые / Yoga Hosers (Кевин Смит / Kevin Smith) [2016,США, Ужасы, фэнтези, триллер, комедия, WEB-DLRip] [Локализованный видеоряд] DUB (iTunes)

Reply to topic
 
Author
Message

Satyr ®

Online

Gender: Unknown

Longevity: 15 years

Posts: 22035

Reputation: 56 [+] [-]

Satyr · Post 22-Sep-2016 11:15

[Quote] 

Йоганутые / Yoga Hosers«A Movie for Kids from the Director of 'Clerks' and 'Tusk.'» Страна: США
Жанр: Ужасы, фэнтези, триллер, комедия
Год выпуска: 2016
Продолжительность: 01:27:17
Перевод: Профессиональный (полное дублирование) iTunes
Cубтитры: русские (на надписи и песни)
Оригинальная аудиодорожка: нет
Режиссер: Кевин Смит / Kevin Smith
В ролях: Лили-Роуз Мелоди Депп, Харли Куинн Смит, Ванесса Паради, Остин Роберт Батлер, Тайлер Пози, Джонни Депп, Джастин Лонг, Ральф Гармен, Хейли Джоэл Осмент, Дженезис Родригез
Описание: Колин Колетт и Колин МакКензи из Манитобы помешаны на йоге. В то же время они вынуждены подрабатывать после школы в небольшом магазинчике, и эту работу они терпеть не могут. Однако долго скучать школьницам не приходится: «вселенское зло», возникшее в прямом смысле слова «из-под земли», грозит им сорвать долгожданную вечеринку для старшеклассников. Тогда девушки объединяются с охотником за головами — Ги Ла Пойнтом, чтобы бороться с демонами зла с помощью всех «семи чакр и одной позы воина».
Сэмпл: http://multi-up.com/1118851
Качество видео: WEB-DLRip
Исходник: Y0gaHuTYe.2016.D.WEB-DL.1080p
Формат видео: AVI
Видео: 720x304 (2.37:1), 24.000 fps, XviD build 65 ~1998 kbps avg, 0.38 bit/pixel
Аудио RUS: 48 kHz, AC3 Dolby Digital, 3/2 (L,C,R,l,r) + LFE ch, ~384 kbps

Rip by Ториял для

MediaInfo

Format : AVI
Format/Info : Audio Video Interleave
File size : 1.46 GiB
Duration : 1h 27mn
Overall bit rate : 2 392 Kbps
Writing application : VirtualDubMod 1.5.10.3 | www.virtualdub-fr.org || (build 2550/release)
Writing library : VirtualDubMod build 2550/release
Video
ID : 0
Format : MPEG-4 Visual
Format profile : Advanced Simple@L5
Format settings, BVOP : 1
Format settings, QPel : No
Format settings, GMC : No warppoints
Format settings, Matrix : Custom
Codec ID : XVID
Codec ID/Hint : XviD
Duration : 1h 27mn
Bit rate : 1 998 Kbps
Width : 720 pixels
Height : 304 pixels
Display aspect ratio : 2.35:1
Frame rate : 24.000 fps
Color space : YUV
Chroma subsampling : 4:2:0
Bit depth : 8 bits
Scan type : Progressive
Compression mode : Lossy
Bits/(Pixel*Frame) : 0.380
Stream size : 1.22 GiB (84%)
Writing library : XviD 65
Audio
ID : 1
Format : AC-3
Format/Info : Audio Coding 3
Mode extension : CM (complete main)
Format settings, Endianness : Big
Codec ID : 2000
Duration : 1h 27mn
Bit rate mode : Constant
Bit rate : 384 Kbps
Channel(s) : 6 channels
Channel positions : Front: L C R, Side: L R, LFE
Sampling rate : 48.0 KHz
Frame rate : 31.250 fps (1536 spf)
Compression mode : Lossy
Stream size : 240 MiB (16%)
Alignment : Split accross interleaves
Interleave, duration : 42 ms (1.00 video frame)
Interleave, preload duratio : 500 ms

Скриншоты


[Profile]  [PM] 
Display posts:    
Reply to topic

Current time is: 21-Jul 22:14

All times are UTC + 2



You cannot post new topics in this forum
You cannot reply to topics in this forum
You cannot edit your posts in this forum
You cannot delete your posts in this forum
You cannot vote in polls in this forum
You cannot attach files in this forum
You cannot download files in this forum