Судная ночь 3 / The Purge: Election Year (Джеймс ДеМонако / James DeMonaco) [2016, США, Франция, ужасы, фантастика, боевик, WEB-DLRip-AVC] Dub

Reply to topic
 
Author
Message

Satyr ®

Online

Gender: Unknown

Longevity: 11 years

Posts: 15401

Reputation: 55 [+] [-]

Satyr · Post 22-Sep-2016 23:35

[Quote] 

Судная ночь 3 / The Purge: Election Year«Один раз в году все преступления законны»- Страна: США, Франция
Жанр: ужасы, фантастика, боевик, триллер
Год выпуска: 2016
Продолжительность: 01:48:47
Перевод: Профессиональный (дублированный) (iTunes)
Оригинальная аудиодорожка: нет
Субтитры: нет
Навигация по главам: есть
Режиссер: Джеймс ДеМонако / James DeMonaco
В ролях: Фрэнк Грилло (Leo Barnes), Элизабет Митчелл (Senator Charlie Roan), Майкелти Уильямсон (Joe Dixon), Джозеф Джулиан Сория (Marcos), Бетти Гэбриел (Laney Rucker), Терри Серпико (Earl Danzinger), Эдвин Ходж (Dante Bishop), Кайл Сикор (Minister Edwidge Owens), Бэрри Нолан (Reporter #1), Лиза Колон-Зайас (Dawn), Итэн Филлипс (Chief Couper), Адам Кантор (Tall Eric Busmalis)
Описание: Добро пожаловать в идеальное будущее, в котором Судная ночь превратилась в международный тренд. Туристы со всего мира прибывают в аэропорты Америки: ведь всего лишь раз в году здесь позволено все, главное - дожить до рассвета.- -Качество: WEB-DLRip-AVC (исходник - The.Purge.Election.Year.2016.1080p.WEB-DL.DD5.1.H264-FGT)
Формат видео: MKV
Видео: x264, 912x378 (2.40:1), 23,976 fps, ~1398 kbps, 0,169 bit/pixel
Аудио: 48 kHz, AC3 Dolby Digital, 3/2 (L,C,R,l,r) + LFE ch, ~384 kbps-

MediaInfo | x264 log

Format : Matroska
Format version : Version 4 / Version 2
File size : 1.38 GiB
Duration : 1h 48 min
Overall bit rate : 1 818 kb/s
Movie name : Судная ночь 3 / The Purge: Election Year (2016) :: AFM ::
Encoded date : UTC 2016-09-21 21:07:44
Writing application : mkvmerge v8.3.0 ('Over the Horizon') 32bit
Writing library : libebml v1.3.1 + libmatroska v1.4.2
Video
ID : 1
Format : AVC
Format/Info : Advanced Video Codec
Format profile : High@L4.1
Format settings, CABAC : Yes
Format settings, ReFrames : 10 frames
Codec ID : V_MPEG4/ISO/AVC
Duration : 1h 48 min
Bit rate : 1 398 kb/s
Width : 912 pixels
Height : 378 pixels
Display aspect ratio : 2.40:1
Frame rate mode : Constant
Frame rate : 23.976 (24000/1001) FPS
Color space : YUV
Chroma subsampling : 4:2:0
Bit depth : 8 bits
Scan type : Progressive
Bits/(Pixel*Frame) : 0.169
Stream size : 1.06 GiB (77%)
Title : WEB_DLRip by AFM
Writing library : x264 core 148 r2705+54 9f484c1 t_mod_Custom [8-bit@all X86_64]
Encoding settings : cabac=1 / ref=10 / deblock=1:-2:-2 / analyse=0x3:0x113 / me=umh / subme=10 / psy=1 / fade_compensate=0.00 / psy_rd=1.00:0.00 / mixed_ref=1 / me_range=32 / chroma_me=1 / trellis=2 / 8x8dct=1 / cqm=0 / deadzone=21,11 / fast_pskip=0 / chroma_qp_offset=-2 / threads=6 / lookahead_threads=1 / sliced_threads=0 / nr=0 / decimate=1 / interlaced=0 / bluray_compat=0 / constrained_intra=0 / fgo=0 / bframes=11 / b_pyramid=2 / b_adapt=2 / b_bias=0 / direct=1 / weightb=1 / open_gop=0 / weightp=2 / keyint=250 / keyint_min=23 / scenecut=40 / intra_refresh=0 / rc_lookahead=40 / rc=crf / mbtree=0 / crf=18.8000 / qcomp=0.65 / qpmin=0:0:0 / qpmax=69:69:69 / qpstep=4 / vbv_maxrate=50000 / vbv_bufsize=62500 / crf_max=0.0 / nal_hrd=none / filler=0 / ip_ratio=1.35 / pb_ratio=1.30 / aq=3:0.80 / aq-sensitivity=10.00 / aq-factor=1.00:1.00:1.00 / aq2=0 / aq3=0
Language : English
Default : Yes
Forced : No
Audio
ID : 2
Format : AC-3
Format/Info : Audio Coding 3
Mode extension : CM (complete main)
Format settings, Endianness : Big
Codec ID : A_AC3
Duration : 1h 48 min
Bit rate mode : Constant
Bit rate : 384 kb/s
Channel(s) : 6 channels
Channel positions : Front: L C R, Side: L R, LFE
Sampling rate : 48.0 kHz
Frame rate : 31.250 FPS (1536 spf)
Compression mode : Lossy
Stream size : 299 MiB (21%)
Title : Dub, AC3 5.1 ~384 kbps
Language : Russian
Default : No
Forced : No
Menu
00:00:00.000 : en:1
00:05:48.000 : en:2
00:09:21.000 : en:3
00:17:14.000 : en:4
00:22:50.000 : en:5
00:28:44.000 : en:6
00:35:59.000 : en:7
00:41:49.000 : en:8
00:47:03.000 : en:9
00:53:31.000 : en:10
00:57:29.000 : en:11
01:02:22.000 : en:12
01:10:44.000 : en:13
01:17:34.000 : en:14
01:22:18.000 : en:15
01:27:04.000 : en:16
01:32:14.000 : en:17
01:36:18.000 : en:18
01:41:32.000 : en:19
01:43:38.000 : en:20

x264

x264 [info]: frame I:1302 Avg QP:16.07 size: 34164
x264 [info]: frame P:37204 Avg QP:17.57 size: 14996
x264 [info]: frame B:118005 Avg QP:20.55 size: 4799
x264 [info]: consecutive B-frames: 2.0% 2.8% 7.4% 48.0% 13.7% 18.5% 2.6% 1.0% 0.9% 1.6% 0.4% 1.0%
x264 [info]: mb I I16..4: 8.6% 72.5% 18.8%
x264 [info]: mb P I16..4: 1.4% 13.0% 1.9% P16..4: 36.7% 28.2% 12.7% 0.0% 0.0% skip: 6.2%
x264 [info]: mb B I16..4: 0.1% 0.7% 0.2% B16..8: 40.1% 12.1% 2.9% direct: 5.9% skip:38.0% L0:41.1% L1:45.9% BI:12.9%
x264 [info]: 8x8 transform intra:77.6% inter:66.2%
x264 [info]: coded y,uvDC,uvAC intra: 82.4% 80.8% 57.5% inter: 24.4% 16.8% 2.2%
x264 [info]: i16 v,h,dc,p: 33% 14% 9% 45%
x264 [info]: i8 v,h,dc,ddl,ddr,vr,hd,vl,hu: 13% 9% 8% 9% 12% 13% 12% 12% 13%
x264 [info]: i4 v,h,dc,ddl,ddr,vr,hd,vl,hu: 13% 8% 4% 10% 15% 14% 13% 11% 12%
x264 [info]: i8c dc,h,v,p: 42% 23% 19% 16%
x264 [info]: Weighted P-Frames: Y:5.5% UV:3.2%
x264 [info]: ref P L0: 51.4% 10.1% 17.6% 6.0% 4.8% 3.1% 2.8% 1.5% 1.5% 1.3% 0.1% 0.0%
x264 [info]: ref B L0: 81.6% 9.4% 3.8% 1.8% 1.2% 0.9% 0.7% 0.4% 0.2%
x264 [info]: ref B L1: 96.3% 3.7%
x264 [info]: kb/s:1432.24

Скриншоты

с названием

[Profile]  [PM] 
Display posts:    
Reply to topic

Current time is: 26-Sep 03:39

All times are UTC + 2



You cannot post new topics in this forum
You cannot reply to topics in this forum
You cannot edit your posts in this forum
You cannot delete your posts in this forum
You cannot vote in polls in this forum
You cannot attach files in this forum
You cannot download files in this forum