Непорочные / Невинные / Les innocentes / The Innocents (Анн Фонтен / Anne Fontaine) [2016, Франция, Польша, Бельгия, драма, BDRip] AVO (Алексеев)

Reply to topic
 
Author
Message

Satyr ®

Gender: Unknown

Longevity: 11 years

Posts: 15401

Reputation: 55 [+] [-]

Satyr · Post 22-Sep-2016 23:35

[Quote] 

Непорочные / Невинные / Les innocentes / The Innocents
Страна: Франция, Польша, Бельгия
Студия: A Plus Image 6, Aeroplan Film, Antenne-2 (A2), Canal+ [fr], Ciné, Cofinova 11, Eurimages, France 2 Cinéma, La Banque Postale Image 8, Mandarin Films, Mars Films, NC+, Polish Film Institute, Scope Pictures, Sofica Manon 5
Жанр: Драма
Год выпуска: 2016
Продолжительность: 01:55:13
Перевод: Авторский (одноголосый закадровый) Антон Алексеев
Cубтитры: нет
Оригинальная аудиодорожка: нет
Режиссер: Анн Фонтен / Anne Fontaine
В ролях: Лу де Лааж, Агата Бузек, Агата Кулеша, Венсан Макен, Джоэнна Кулиг, Элиза Рыцембель, Катажина Дабровска, Анна Прухняк, Хелена Суецкая, Мира Малюжинска
Описание: Польша, зима 1945 года. Французский Красный крест занимается репатриацией своих граждан, уцелевших в фашистских концлагерях, и временно размещает их в больнице. Среди медиков работает молоденькая Матильда Больё. Однажды в больницу приезжает монахиня из близлежащего монастыря и на ломаном французском умоляет о помощи умирающей. Как оказалось, надо принять роды у одной из монахинь. Настоятельница монастыря хочет любой ценой сохранить тайну, чтобы избежать скандала. Встреченная с недоверием, Матильда вступает в неизвестный ей мир и близко знакомится с сестрой Марией. Вместе они открывают ужасающую правду, скрытую за стенами монастыря...
Дополнительная информация:
Автор релиза - ylnian
Заказ перевода у Антона Алексеева (сентябрь 2016) - ylnian
За сборку дороги спасибо rammzez
Источник для рипа - Blu-Ray (FRA) - Les.Innocentes.2016.FRENCH.COMPLETE.BLURAY-4FR


Сэмпл: https://yadi.sk/i/Ke6rWf8CvRhbP
Качество видео: BDRip
Формат видео: AVI
Видео: XviD, 688x368 (1,85:1), 24.000 fps, 1419 kbps, 0.233 bit/pixel
Аудио: Русский AC3, 48000 Гц, 6ch, 384 kbps

MediaInfo

Общее
Полное имя : D:\Les.innocentes.2016.BDRip-ylnian.avi
Формат : AVI
Формат/Информация : Audio Video Interleave
Размер файла : 1,46 Гбайт
Продолжительность : 1 ч. 55 м.
Общий поток : 1812 Кбит/сек
Программа кодирования : VirtualDubMod 1.5.10.2 (build 2540/release)
Библиотека кодирования : VirtualDubMod build 2540/release
Видео
Идентификатор : 0
Формат : MPEG-4 Visual
Профиль формата : Advanced Simple@L5
Параметр BVOP формата : 1
Параметр QPel формата : Нет
Параметр GMC формата : Без точки перехода
Параметр матрицы формата : Default (MPEG)
Идентификатор кодека : XVID
Идентификатор кодека/Подсказка : XviD
Продолжительность : 1 ч. 55 м.
Битрейт : 1419 Кбит/сек
Ширина : 688 пикселей
Высота : 368 пикселей
Соотношение сторон : 1,85:1
Частота кадров : 24,000 кадра/сек
Цветовое пространство : YUV
Субдискретизация насыщенности : 4:2:0
Битовая глубина : 8 бит
Тип развёртки : Прогрессивная
Метод сжатия : С потерями
Бит/(Пиксели*Кадры) : 0.233
Размер потока : 1,14 Гбайт (78%)
Библиотека кодирования : XviD 67
Аудио
Идентификатор : 1
Формат : AC-3
Формат/Информация : Audio Coding 3
Расширение режима : CM (complete main)
Параметр Endianness формата : Big
Идентификатор кодека : 2000
Продолжительность : 1 ч. 55 м.
Вид битрейта : Постоянный
Битрейт : 384 Кбит/сек
Каналы : 6 каналов
Расположение каналов : Front: L C R, Side: L R, LFE
Частота : 48,0 КГц
Частота кадров : 31,250 кадров/сек (1536 spf)
Метод сжатия : С потерями
Размер потока : 316 Мбайт (21%)
Выравнивание : Разделение по промежуткам
Продолжительность промежутка : 42 мс. (1,00 видеокадр)
Время предзагрузки промежутка : 500 мс.
Заголовок : RUS - AVO - Alexeev

Награды

Награды:
- 2016. Норвежский МКФ (Norwegian International Film Festival): Премия Андреас (Анн Фонтэн),
- 2016. Международный кинофестиваль в Провинстауне (Provincetown International Film Festival, США): Лучший художественный фильм (Анн Фонтэн)
Номинации:
- 2016. Ие­ру­са­лимс­кий МКФ (Jerusalem Film Festival, Израиль): Премия "Дух Свободы" (Анн Фонтэн),
- 2016. Меж­ду­на­род­ный ки­но­фес­ти­валь в Си­эт­ле (Seattle International Film Festival, США): Лучший режиссёр (Анн Фонтэн), Лучшая актриса (Лу де Лааж)

Скриншот c названием фильма

Скриншоты

[Profile]  [PM] 
Display posts:    
Reply to topic

Current time is: 19-Sep 10:57

All times are UTC + 2



You cannot post new topics in this forum
You cannot reply to topics in this forum
You cannot edit your posts in this forum
You cannot delete your posts in this forum
You cannot vote in polls in this forum
You cannot attach files in this forum
You cannot download files in this forum