День независимости: Возрождение / Independence Day: Resurgence (Роланд Эммерих / Roland Emmerich) [2016, США, фантастика, боевик, приключения, WEBRip] Dub (Line)

Reply to topic
 
Author
Message

Satyr ®

Online

Gender: Unknown

Longevity: 11 years

Posts: 15401

Reputation: 55 [+] [-]

Satyr · Post 22-Sep-2016 23:35

[Quote] 

День независимости: Возрождение / Independence Day: Resurgence
Страна: США
Жанр: фантастика, боевик, приключения
Год выпуска: 2016
Продолжительность: 01:59:11
Перевод: Профессиональный (дублированный)(Line)
Cубтитры: нет
Режиссер: Роланд Эммерих / Roland Emmerich
В ролях: Майка Монро, Джои Кинг, Лиам Хемсворт, Джефф Голдблюм, Уильям Фихтнер, Джесси Ашер, Билл Пуллман, Вивика А. Фокс
Описание: Используя инопланетные технологии, жители Земли создали специальную программу по защите планеты. Но ничего не может нас спасти от нового, еще более разрушительного и масштабного инопланетного вторжения — только смелость нескольких героев, которые единственные могут спасти наш мир от уничтожения...
Сэмпл: http://multi-up.com/1114569
Качество видео: WEBRip
Формат видео: AVI
Видео: 720x320 (2,25:1), 23,976 fps, XviD 73~1800 kbps avg, 0.174 bit/pixel
Аудио: 48,0 kHz, AC-3, 6 ch, ~384 kbps

MediaInfo

Формат : AVI
Формат/Информация : Audio Video Interleave
Размер файла : 1,83 Гбайт
Продолжительность : 1 ч. 59 м.
Общий поток : 2193 Кбит/сек
Программа кодирования : VirtualDubMod 1.5.10.3 | www.virtualdub-fr.org || (build 2550/release)
Библиотека кодирования : VirtualDubMod build 2550/release
Видео
Идентификатор : 0
Формат : MPEG-4 Visual
Профиль формата : Advanced Simple@L5
Параметр BVOP формата : 1
Параметр QPel формата : Нет
Параметр GMC формата : Без точки перехода
Параметр матрицы формата : Выборочная
Идентификатор кодека : XVID
Идентификатор кодека/Подсказка : XviD
Продолжительность : 1 ч. 59 м.
Битрейт : 1800 Кбит/сек
Ширина : 720 пикселей
Высота : 320 пикселей
Соотношение сторон : 2,25:1
Частота кадров : 23,976 (23976/1000) кадра/сек
Цветовое пространство : YUV
Субдискретизация насыщенности : 4:2:0
Битовая глубина : 8 бит
Тип развёртки : Прогрессивная
Метод сжатия : С потерями
Бит/(Пиксели*Кадры) : 0.326
Размер потока : 1,50 Гбайт (82%)
Библиотека кодирования : XviD 73
Аудио
Идентификатор : 1
Формат : AC-3
Формат/Информация : Audio Coding 3
Расширение режима : CM (complete main)
Параметр Endianness формата : Big
Идентификатор кодека : 2000
Продолжительность : 1 ч. 59 м.
Вид битрейта : Постоянный
Битрейт : 384 Кбит/сек
Каналы : 6 каналов
Расположение каналов : Front: L C R, Side: L R, LFE
Частота : 48,0 КГц
Частота кадров : 31,250 кадров/сек (1536 spf)
Метод сжатия : С потерями
Размер потока : 327 Мбайт (18%)
Выравнивание : Разделение по промежуткам
Продолжительность промежутка : 42 мс. (1,00 видеокадр)
Время предзагрузки промежутка : 500 мс.

Скриншот c названием фильма

Скриншоты

[Profile]  [PM] 
Display posts:    
Reply to topic

Current time is: 20-Sep 22:37

All times are UTC + 2



You cannot post new topics in this forum
You cannot reply to topics in this forum
You cannot edit your posts in this forum
You cannot delete your posts in this forum
You cannot vote in polls in this forum
You cannot attach files in this forum
You cannot download files in this forum