31: Праздник смерти / 31 (Роб Зомби) [2016 г., Триллер, ужасы WEB-DLRip] VO (Xixidok)

Reply to topic
 
Author
Message

groozin ®

Gender: Male

Longevity: 4 years

Posts: 45

Reputation: 0 [+] [-]

Location: ЛНР

groozin · Post 23-Sep-2016 11:31

[Quote] 

31: Праздник смерти / 31 -
Год выпуска: 2016
Страна: США, Великобритания / Bow and Arrow Entertainment, Spectacle Entertainment Group, Windy Hill Pictures
Жанр: Триллер, ужасы
Продолжительность: 01:43:10
Перевод: Любительский (одноголосый закадровый) [Xixidok]
Режиссер: Роб Зомби
В ролях: Шери Мун Зомби, Джеффри Дэниэл Филлипс, Лоуренс Хилтон-Джакобс, Мег Фостер, Кевин Джексон, Малкольм МакДауэлл, Джейн Карр, Джуди Гисон, Ричард Брэйк, Панчо Молер

Описание:
История пяти людей, которые были похищены за пять дней до Хэллоуина и оказались пленниками в сотворенном человеком аду. Там им предстоит сыграть на выживание в жестокой игре под названием «31».
--     

MediaInfo:

Общее
Полное имя : E:\TORRENTY\Films\31.Prazdnik.Smerti.2016.WEB-DLRip\31.Prazdnik.Smerti.2016.WEB-DLRip\31.Prazdnik.Smerti.2016.WEB-DLRip.avi
Формат : AVI
Формат/Информация : Audio Video Interleave
Профиль формата : OpenDML
Размер файла : 1,46 Гбайт
Продолжительность : 1 ч. 43 м.
Общий поток : 2025 Кбит/сек
Название фильма : Rip by basma4i
Программа кодирования : XviD4PSP 6.0 / 54.29.105
Видео
Идентификатор : 0
Формат : xvid
Идентификатор кодека : xvid
Продолжительность : 1 ч. 43 м.
Битрейт : 1428 Кбит/сек
Ширина : 720 пикселей
Высота : 304 пикселя
Соотношение сторон : 2,40:1
Частота кадров : 23,976 кадра/сек
Тип развёртки : Прогрессивная
Бит/(Пиксели*Кадры) : 0.272
Размер потока : 1,03 Гбайт (71%)
Аудио #1
Идентификатор : 1
Формат : MPEG Audio
Версия формата : Version 1
Профиль формата : Layer 3
Идентификатор кодека : 55
Идентификатор кодека/Подсказка : MP3
Продолжительность : 1 ч. 43 м.
Вид битрейта : Постоянный
Битрейт : 192 Кбит/сек
Каналы : 2 канала
Частота : 44,1 КГц
Метод сжатия : С потерями
Размер потока : 142 Мбайт (9%)
Выравнивание : Соединение по промежуткам
Продолжительность промежутка : 26 мс. (0,63 видеокадр)
Заголовок : Xixidok
Аудио #2
Идентификатор : 2
Формат : AC-3
Формат/Информация : Audio Coding 3
Расширение режима : CM (complete main)
Параметр Endianness формата : Big
Идентификатор кодека : 2000
Продолжительность : 1 ч. 43 м.
Вид битрейта : Постоянный
Битрейт : 384 Кбит/сек
Каналы : 6 каналов
Расположение каналов : Front: L C R, Side: L R, LFE
Частота : 48,0 КГц
Частота кадров : 31,250 кадров/сек (1536 spf)
Битовая глубина : 16 бит
Метод сжатия : С потерями
Размер потока : 283 Мбайт (19%)
Выравнивание : Соединение по промежуткам
Продолжительность промежутка : 32 мс. (0,77 видеокадр)
Качество: WEB-DLRip
Формат: AVI
Данные видео: 720x304, XviD, 1428 Kbps, 23,976 fps, 0.272 Бит/(Пиксели*Кадры)
Аудио#1: русский: MP3, 192 Kbps, 2 ch, 44,1 kHz
Аудио#2: английский: AC3, 384 Kbps, 6 ch, 48 kHz

Субтитры: Aнглийские (внешние)

Скриншоты

18+18+18+18+18+

[Profile]  [PM] 
Display posts:    
Reply to topic

Current time is: 18-Sep 15:30

All times are UTC + 2



You cannot post new topics in this forum
You cannot reply to topics in this forum
You cannot edit your posts in this forum
You cannot delete your posts in this forum
You cannot vote in polls in this forum
You cannot attach files in this forum
You cannot download files in this forum