Любой ценой / Hell or High Water (Дэвид Маккензи / David Mackenzie) [2016, США, драма, криминал, WEB-DLRip-AVC] Dub

Reply to topic
 
Author
Message

Satyr ®

Online

Gender: Unknown

Longevity: 15 years

Posts: 22035

Reputation: 56 [+] [-]

Satyr · Post 23-Sep-2016 11:55

[Quote] 

Любой ценой / Hell or High Water«Справедливость - это не преступление»- Страна: США
Жанр: драма, криминал
Год выпуска: 2016
Продолжительность: 01:37:44
Перевод: Профессиональный (дублированный) (iTunes)
Оригинальная аудиодорожка: нет
Субтитры: нет
Навигация по главам: есть
Режиссер: Дэвид Маккензи / David Mackenzie
В ролях: Джефф Бриджес (Marcus Hamilton), Крис Пайн (Toby Howard), Бен Фостер (Tanner Howard), Джил Бирмингем (Alberto Parker), Дейл Дикки (Elsie), Уильям Стерчи (Mr. Clauson), Бак Тейлор (Old Man), Кристин Берг (Olney Teller), Кит Мэривезер (Rancher), Жакмо Буззел (Archer City Deputy), Кэти Миксон (Jenny Ann), Эмбер Мидфандер (Vernon Teller)
Описание: Два брата-лузера решают наведаться в хранилища пары-тройки банков, которые много лет безбожно обкрадывают своих должников. Расследование дерзких ограблений с грубым почерком увенчает карьеру шерифа Маркуса. Но куда выведет это нехитрое дело?- -Качество: WEB-DLRip-AVC (исходник - HOH_WATER_WEB_DL_1080p-BLUEBIRD)
Формат видео: MKV
Видео: x264, 984x412 (2.40:1), 25 fps, ~1634 kbps, 0,161 bit/pixel
Аудио: 48 kHz, AC3 Dolby Digital, 3/2 (L,C,R,l,r) + LFE ch, ~384 kbps-

MediaInfo | x264 log

Format : Matroska
Format version : Version 4 / Version 2
File size : 1.41 GiB
Duration : 1h 37 min
Overall bit rate : 2 059 kb/s
Movie name : Любой ценой / Hell or High Water (2016) :: AFM ::
Encoded date : UTC 2016-09-22 07:47:44
Writing application : mkvmerge v8.3.0 ('Over the Horizon') 32bit
Writing library : libebml v1.3.1 + libmatroska v1.4.2
Video
ID : 1
Format : AVC
Format/Info : Advanced Video Codec
Format profile : High@L4.1
Format settings, CABAC : Yes
Format settings, ReFrames : 11 frames
Codec ID : V_MPEG4/ISO/AVC
Duration : 1h 37 min
Bit rate : 1 634 kb/s
Width : 984 pixels
Height : 412 pixels
Display aspect ratio : 2.40:1
Frame rate mode : Constant
Frame rate : 25.000 FPS
Color space : YUV
Chroma subsampling : 4:2:0
Bit depth : 8 bits
Scan type : Progressive
Bits/(Pixel*Frame) : 0.161
Stream size : 1.12 GiB (79%)
Title : WEB_DLRip by AFM
Writing library : x264 core 148 r2705+54 9f484c1 t_mod_Custom [8-bit@all X86_64]
Encoding settings : cabac=1 / ref=11 / deblock=1:-2:-1 / analyse=0x3:0x113 / me=umh / subme=10 / psy=1 / fade_compensate=0.00 / psy_rd=1.00:0.00 / mixed_ref=1 / me_range=32 / chroma_me=1 / trellis=2 / 8x8dct=1 / cqm=0 / deadzone=21,11 / fast_pskip=0 / chroma_qp_offset=-2 / threads=6 / lookahead_threads=1 / sliced_threads=0 / nr=0 / decimate=1 / interlaced=0 / bluray_compat=0 / constrained_intra=0 / fgo=0 / bframes=11 / b_pyramid=2 / b_adapt=2 / b_bias=0 / direct=1 / weightb=1 / open_gop=0 / weightp=2 / keyint=250 / keyint_min=25 / scenecut=40 / intra_refresh=0 / rc_lookahead=40 / rc=crf / mbtree=0 / crf=17.9500 / qcomp=0.65 / qpmin=0:0:0 / qpmax=69:69:69 / qpstep=4 / vbv_maxrate=50000 / vbv_bufsize=62500 / crf_max=0.0 / nal_hrd=none / filler=0 / ip_ratio=1.35 / pb_ratio=1.30 / aq=3:0.80 / aq-sensitivity=10.00 / aq-factor=1.00:1.00:1.00 / aq2=0 / aq3=0
Language : English
Default : Yes
Forced : No
Audio
ID : 2
Format : AC-3
Format/Info : Audio Coding 3
Mode extension : CM (complete main)
Format settings, Endianness : Big
Codec ID : A_AC3
Duration : 1h 37 min
Bit rate mode : Constant
Bit rate : 384 kb/s
Channel(s) : 6 channels
Channel positions : Front: L C R, Side: L R, LFE
Sampling rate : 48.0 kHz
Frame rate : 31.250 FPS (1536 spf)
Compression mode : Lossy
Stream size : 268 MiB (19%)
Title : Dub, AC3 5.1 ~384 kbps
Language : Russian
Default : Yes
Forced : No
Menu
00:00:00.000 : en:1
00:04:56.440 : en:2
00:09:49.040 : en:3
00:16:18.880 : en:4
00:24:04.320 : en:5
00:33:06.000 : en:6
00:39:17.760 : en:7
00:46:26.000 : en:8
00:53:07.880 : en:9
01:00:00.560 : en:10
01:06:40.960 : en:11
01:11:35.120 : en:12
01:17:17.120 : en:13
01:22:45.840 : en:14

x264

x264 [info]: frame I:908 Avg QP:17.36 size: 55038
x264 [info]: frame P:36197 Avg QP:18.53 size: 18008
x264 [info]: frame B:109492 Avg QP:21.16 size: 4790
x264 [info]: consecutive B-frames: 1.3% 2.8% 4.8% 68.6% 7.7% 12.0% 1.3% 1.1% 0.1% 0.1% 0.1% 0.2%
x264 [info]: mb I I16..4: 3.6% 69.5% 26.9%
x264 [info]: mb P I16..4: 0.4% 6.4% 1.4% P16..4: 37.4% 31.0% 17.5% 0.0% 0.0% skip: 6.0%
x264 [info]: mb B I16..4: 0.0% 0.6% 0.2% B16..8: 35.2% 11.3% 3.4% direct: 5.1% skip:44.3% L0:37.3% L1:45.0% BI:17.8%
x264 [info]: 8x8 transform intra:75.4% inter:57.6%
x264 [info]: coded y,uvDC,uvAC intra: 90.1% 87.5% 64.0% inter: 21.2% 13.6% 2.9%
x264 [info]: i16 v,h,dc,p: 19% 30% 4% 47%
x264 [info]: i8 v,h,dc,ddl,ddr,vr,hd,vl,hu: 12% 17% 6% 7% 11% 12% 12% 10% 13%
x264 [info]: i4 v,h,dc,ddl,ddr,vr,hd,vl,hu: 14% 17% 3% 7% 13% 12% 13% 9% 11%
x264 [info]: i8c dc,h,v,p: 35% 30% 19% 16%
x264 [info]: Weighted P-Frames: Y:1.5% UV:0.6%
x264 [info]: ref P L0: 51.0% 11.7% 16.6% 5.2% 4.5% 2.9% 2.8% 1.4% 1.4% 1.1% 1.3% 0.0% 0.0%
x264 [info]: ref B L0: 79.8% 9.9% 4.0% 2.0% 1.3% 1.0% 0.8% 0.5% 0.4% 0.2%
x264 [info]: ref B L1: 96.0% 4.0%
x264 [info]: kb/s:1673.01

Скриншоты

с названием

[Profile]  [PM] 
Display posts:    
Reply to topic

Current time is: 21-Jul 22:40

All times are UTC + 2



You cannot post new topics in this forum
You cannot reply to topics in this forum
You cannot edit your posts in this forum
You cannot delete your posts in this forum
You cannot vote in polls in this forum
You cannot attach files in this forum
You cannot download files in this forum