Йоганутые / Yoga Hosers (Кевин Смит / Kevin Smith) [2016, США, ужасы, фэнтези, триллер, WEB-DLRip-AVC] [Локализованный видеоряд] Dub

Reply to topic
 
Author
Message

Satyr ®

Gender: Unknown

Longevity: 11 years

Posts: 15401

Reputation: 55 [+] [-]

Satyr · Post 23-Sep-2016 11:55

[Quote] 

Йоганутые / Yoga Hosers«A Movie for Kids from the Director of 'Clerks' and 'Tusk.'»- Страна: США
Жанр: ужасы, фэнтези, триллер, комедия
Год выпуска: 2016
Продолжительность: 01:27:17
Перевод: Профессиональный (дублированный) (iTunes)
Оригинальная аудиодорожка: нет
Субтитры: русские (форс., вшитые)
Навигация по главам: есть
Режиссер: Кевин Смит / Kevin Smith
В ролях: Лили-Роуз Мелоди Депп (Colleen Collette), Харли Куинн Смит (Colleen McKenzie), Ванесса Паради, Остин Роберт Батлер (Hunter Calloway), Тайлер Пози (Gordon Greenleaf), Джонни Депп (Guy Lapointe), Джастин Лонг (Yogi Bayer), Ральф Гармен (Old Man Arcane), Хэйли Джоэл Осмент (Adrien Arcand), Дженезис Родригез (Ms. Wicklund), Харли Моренштейн (Toilet Paper Man), Тони Хейл (Bob Collette)
Описание: Колин Колетт и Колин МакКензи из Манитобы помешаны на йоге. В то же время они вынуждены подрабатывать после школы в небольшом магазинчике, и эту работу они терпеть не могут. Однако долго скучать школьницам не приходится: «вселенское зло», возникшее в прямом смысле слова «из-под земли», грозит им сорвать долгожданную вечеринку для старшеклассников. Тогда девушки объединяются с охотником за головами - Ги Ла Пойнтом, чтобы бороться с демонами зла с помощью всех «семи чакр и одной позы воина».- -Качество: WEB-DLRip-AVC (исходник - YOGA_HSRS_2016_WEB-DL_1080P -BLUEBIRD)
Формат видео: MKV
Видео: x264, 1008x422 (2.40:1), 24 fps, ~1697 kbps, 0,166 bit/pixel
Аудио: 48 kHz, AC3 Dolby Digital, 3/2 (L,C,R,l,r) + LFE ch, ~384 kbps-

MediaInfo | x264 log

Format : Matroska
Format version : Version 4 / Version 2
File size : 1.29 GiB
Duration : 1 h 27 min
Overall bit rate : 2 124 kb/s
Movie name : Йоганутые / Yoga Hosers (2016) :: AFM ::
Encoded date : UTC 2016-09-20 15:23:46
Writing application : mkvmerge v8.3.0 ('Over the Horizon') 32bit
Writing library : libebml v1.3.1 + libmatroska v1.4.2
Video
ID : 1
Format : AVC
Format/Info : Advanced Video Codec
Format profile : High@L4.1
Format settings, CABAC : Yes
Format settings, ReFrames : 11 frames
Codec ID : V_MPEG4/ISO/AVC
Duration : 1 h 27 min
Bit rate : 1 697 kb/s
Width : 1 008 pixels
Height : 422 pixels
Display aspect ratio : 2.40:1
Frame rate mode : Constant
Frame rate : 24.000 FPS
Color space : YUV
Chroma subsampling : 4:2:0
Bit depth : 8 bits
Scan type : Progressive
Bits/(Pixel*Frame) : 0.166
Stream size : 1.04 GiB (80%)
Title : WEB_DLRip by AFM
Writing library : x264 core 148 r2705+54 9f484c1 t_mod_Custom [8-bit@all X86_64]
Encoding settings : cabac=1 / ref=11 / deblock=1:-2:-1 / analyse=0x3:0x113 / me=umh / subme=10 / psy=1 / fade_compensate=0.00 / psy_rd=1.00:0.00 / mixed_ref=1 / me_range=32 / chroma_me=1 / trellis=2 / 8x8dct=1 / cqm=0 / deadzone=21,11 / fast_pskip=0 / chroma_qp_offset=-2 / threads=6 / lookahead_threads=1 / sliced_threads=0 / nr=0 / decimate=1 / interlaced=0 / bluray_compat=0 / constrained_intra=0 / fgo=0 / bframes=10 / b_pyramid=2 / b_adapt=2 / b_bias=0 / direct=1 / weightb=1 / open_gop=0 / weightp=2 / keyint=250 / keyint_min=23 / scenecut=40 / intra_refresh=0 / rc_lookahead=40 / rc=crf / mbtree=0 / crf=18.2000 / qcomp=0.65 / qpmin=0:0:0 / qpmax=69:69:69 / qpstep=4 / vbv_maxrate=50000 / vbv_bufsize=62500 / crf_max=0.0 / nal_hrd=none / filler=0 / ip_ratio=1.35 / pb_ratio=1.30 / aq=3:0.80 / aq-sensitivity=10.00 / aq-factor=1.00:1.00:1.00 / aq2=0 / aq3=0
Language : English
Default : Yes
Forced : No
Audio
ID : 2
Format : AC-3
Format/Info : Audio Coding 3
Mode extension : CM (complete main)
Format settings, Endianness : Big
Codec ID : A_AC3
Duration : 1 h 27 min
Bit rate mode : Constant
Bit rate : 384 kb/s
Channel(s) : 6 channels
Channel positions : Front: L C R, Side: L R, LFE
Sampling rate : 48.0 kHz
Frame rate : 31.250 FPS (1536 spf)
Compression mode : Lossy
Stream size : 240 MiB (18%)
Title : Dub, AC3 5.1 ~384 kbps
Language : Russian
Default : Yes
Forced : No
Menu
00:00:00.000 : en:Chapter 01
00:05:16.166 : en:Chapter 02
00:11:41.582 : en:Chapter 03
00:18:23.123 : en:Chapter 04
00:25:16.498 : en:Chapter 05
00:31:15.706 : en:Chapter 06
00:38:07.247 : en:Chapter 07
00:43:33.580 : en:Chapter 08
00:49:28.705 : en:Chapter 09
00:55:07.705 : en:Chapter 10
01:00:49.788 : en:Chapter 11
01:06:40.704 : en:Chapter 12
01:12:30.245 : en:Chapter 13
01:17:35.203 : en:Chapter 14

x264

x264 [info]: frame I:1427 Avg QP:16.74 size: 61933
x264 [info]: frame P:31106 Avg QP:17.93 size: 18352
x264 [info]: frame B:93175 Avg QP:20.60 size: 5137
x264 [info]: consecutive B-frames: 1.7% 2.2% 3.1% 77.5% 5.3% 9.1% 0.4% 0.3% 0.1% 0.1% 0.3%
x264 [info]: mb I I16..4: 4.8% 69.6% 25.6%
x264 [info]: mb P I16..4: 0.3% 5.9% 1.2% P16..4: 34.5% 27.8% 16.7% 0.0% 0.0% skip:13.4%
x264 [info]: mb B I16..4: 0.0% 0.7% 0.1% B16..8: 30.6% 10.0% 3.3% direct: 4.6% skip:50.7% L0:36.4% L1:45.9% BI:17.7%
x264 [info]: 8x8 transform intra:76.0% inter:58.0%
x264 [info]: coded y,uvDC,uvAC intra: 89.9% 90.5% 80.1% inter: 18.3% 17.5% 7.3%
x264 [info]: i16 v,h,dc,p: 43% 17% 7% 33%
x264 [info]: i8 v,h,dc,ddl,ddr,vr,hd,vl,hu: 20% 9% 7% 8% 11% 13% 10% 12% 11%
x264 [info]: i4 v,h,dc,ddl,ddr,vr,hd,vl,hu: 21% 9% 3% 8% 13% 14% 11% 11% 10%
x264 [info]: i8c dc,h,v,p: 42% 19% 23% 16%
x264 [info]: Weighted P-Frames: Y:2.1% UV:0.6%
x264 [info]: ref P L0: 52.5% 10.0% 17.1% 5.6% 4.7% 2.8% 2.7% 1.3% 1.3% 1.0% 1.1% 0.0% 0.0%
x264 [info]: ref B L0: 78.3% 10.1% 4.2% 2.6% 1.5% 1.1% 0.9% 0.6% 0.5% 0.3%
x264 [info]: ref B L1: 96.0% 4.0%
x264 [info]: kb/s:1737.94

Скриншоты

с названием

[Profile]  [PM] 
Display posts:    
Reply to topic

Current time is: 28-Jan 12:31

All times are UTC + 2



You cannot post new topics in this forum
You cannot reply to topics in this forum
You cannot edit your posts in this forum
You cannot delete your posts in this forum
You cannot vote in polls in this forum
You cannot attach files in this forum
You cannot download files in this forum