Судная ночь 3 / The Purge: Election Year (Джеймс ДеМонако / James DeMonaco) [2016, США, Франция, ужасы, фантастика, боевик, триллер, BDRip] Dub (iTunes)

Reply to topic
 
Author
Message

Satyr ®

Gender: Unknown

Longevity: 11 years

Posts: 15401

Reputation: 55 [+] [-]

Satyr · Post 24-Sep-2016 16:40

[Quote] 

Судная ночь 3 / The Purge: Election Year
Страна: США, Франция
Жанр: ужасы, фантастика, боевик, триллер
Год выпуска: 2016
Продолжительность: 01:48:48
Перевод: Профессиональный (дублированный) iTunes
Cубтитры: нет
Режиссер: Джеймс ДеМонако / James DeMonaco
В ролях: Фрэнк Грилло (Leo Barnes), Элизабет Митчелл (Senator Charlie Roan), Майкелти Уильямсон (Joe Dixon), Джозеф Джулиан Сория (Marcos), Бетти Гэбриел (Laney Rucker), Терри Серпико (Earl Danzinger), Эдвин Ходж (Dante Bishop), Кайл Сикор (Minister Edwidge Owens), Бэрри Нолан (Reporter #1), Лиза Колон-Зайас (Dawn), Итэн Филлипс (Chief Couper), Адам Кантор (Tall Eric Busmalis)
Описание: Добро пожаловать в идеальное будущее, в котором Судная ночь превратилась в международный тренд. Туристы со всего мира прибывают в аэропорты Америки: ведь всего лишь раз в году здесь позволено все, главное - дожить до рассвета.
Сэмпл: http://multi-up.com/1119525
Качество видео: BDRip THE_PURGE_ELECTION_YEAR_REMUX_HDCLUB
Формат видео: AVI
Видео: 720x304 (2.37:1), 23.976 fps, XviD build 73 ~1524 kbps avg, 0.29 bit/pixel
Аудио: 48 kHz, AC3 Dolby Digital, 3/2 (L,C,R,l,r) + LFE ch, ~384 kbps

MediaInfo

Формат : AVI
Формат/Информация : Audio Video Interleave
Размер файла : 1,46 Гбайт
Продолжительность : 1 ч. 48 м.
Общий поток : 1918 Кбит/сек
Программа кодирования : VirtualDubMod 1.5.10.3 | www.virtualdub-fr.org || (build 2550/release)
Библиотека кодирования : VirtualDubMod build 2550/release
Видео
Идентификатор : 0
Формат : MPEG-4 Visual
Профиль формата : Advanced Simple@L5
Параметр BVOP формата : 1
Параметр QPel формата : Нет
Параметр GMC формата : Без точки перехода
Параметр матрицы формата : Выборочная
Идентификатор кодека : XVID
Идентификатор кодека/Подсказка : XviD
Продолжительность : 1 ч. 48 м.
Битрейт : 1525 Кбит/сек
Ширина : 720 пикселей
Высота : 304 пикселя
Соотношение сторон : 2,35:1
Частота кадров : 23,976 (23976/1000) кадра/сек
Цветовое пространство : YUV
Субдискретизация насыщенности : 4:2:0
Битовая глубина : 8 бит
Тип развёртки : Прогрессивная
Метод сжатия : С потерями
Бит/(Пиксели*Кадры) : 0.291
Размер потока : 1,16 Гбайт (79%)
Библиотека кодирования : XviD 73
Аудио
Идентификатор : 1
Формат : AC-3
Формат/Информация : Audio Coding 3
Расширение режима : CM (complete main)
Параметр Endianness формата : Big
Идентификатор кодека : 2000
Продолжительность : 1 ч. 48 м.
Вид битрейта : Постоянный
Битрейт : 384 Кбит/сек
Каналы : 6 каналов
Расположение каналов : Front: L C R, Side: L R, LFE
Частота : 48,0 КГц
Частота кадров : 31,250 кадров/сек (1536 spf)
Метод сжатия : С потерями
Размер потока : 299 Мбайт (20%)
Выравнивание : Разделение по промежуткам
Продолжительность промежутка : 42 мс. (1,00 видеокадр)
Время предзагрузки промежутка : 500 мс.

Скриншоты

http://screenshotcomparison.com/comparison/185517/picture:4 http://torrentsland.com.ua/forum/viewtopic.php?t=5285674
[Profile]  [PM] 
Display posts:    
Reply to topic

Current time is: 21-Sep 04:26

All times are UTC + 2



You cannot post new topics in this forum
You cannot reply to topics in this forum
You cannot edit your posts in this forum
You cannot delete your posts in this forum
You cannot vote in polls in this forum
You cannot attach files in this forum
You cannot download files in this forum