Человек – швейцарский нож / Swiss Army Man (Дэн Кван / Dan Kwan, Дэниэл Шайнерт / Daniel Scheinert) [2016, США, фэнтези, драма, мелодрама, комедия, приключения, HDRip] Dub (iTunes)

Reply to topic
 
Author
Message

Satyr ®

Gender: Unknown

Longevity: 15 years

Posts: 22031

Reputation: 56 [+] [-]

Satyr · Post 26-Sep-2016 09:45

[Quote] 

Человек – швейцарский нож / Swiss Army Man
Страна: США
Студия: Blackbird Films, Cold Iron Pictures, Tadmor
Жанр: фэнтези, драма, мелодрама, комедия, приключения
Год выпуска: 2016
Продолжительность: 01:37:23
Перевод: Профессиональный (дублированный) | iTunes
Cубтитры: Нет
Режиссер: Дэн Кван / Dan Kwan, Дэниэл Шайнерт / Daniel Scheinert
В ролях: Тимоти Йолих, Ричард Гросс, Дэниэл Рэдклифф, Мэри Элизабет Уинстэд, Энди Халл, Антония Риберо, Аарон Маршалл, Пол Дано, Марика Кастил
Описание: Отчаявшийся главный герой в одиночестве блуждает в лесах, где натыкается на мертвое тело и заводит с ним дружбу. Вдвоем они отправляются в сюрреалистическое путешествие домой.

Сэмпл
Релиз от Megapeer (наша группа)
Качество видео: HDRip (Исх. Swiss.Army.Man.2016.DRip.720p)
Формат видео: AVI
Видео: 688x288 (2.39:1), 23.976 fps, XviD build 73 ~936 kbps avg, 0.20 bit/pixel
Аудио: 48 kHz, MPEG Layer 3, 2 ch, ~128.00 kbps avg-

MediaInfo

ОбщееПолное имя                               : D:\Swiss.Army.Man.2016.HDRip.745MB.MegaPeer.aviФормат                                   : AVIФормат/Информация                        : Audio Video InterleaveРазмер файла                             : 746 МбайтПродолжительность                        : 1 ч. 37 м.Общий поток                              : 1070 Кбит/сек
ВидеоИдентификатор : 0Формат : MPEG-4 VisualПрофиль формата : Advanced Simple@L5Параметр BVOP формата : 1Параметр QPel формата : НетПараметр GMC формата : Без точки переходаПараметр матрицы формата : ВыборочнаяИдентификатор кодека : XVIDИдентификатор кодека/Подсказка : XviDПродолжительность : 1 ч. 37 м.Битрейт : 936 Кбит/секШирина : 688 пикселейВысота : 288 пикселейСоотношение сторон : 2,40:1Частота кадров : 23,976 (24000/1001) кадра/секЦветовое пространство : YUVСубдискретизация насыщенности : 4:2:0Битовая глубина : 8 битТип развёртки : ПрогрессивнаяМетод сжатия : С потерямиБит/(Пиксели*Кадры) : 0.197Размер потока : 652 Мбайт (87%)Библиотека кодирования : XviD 73
АудиоИдентификатор : 1Формат : MPEG AudioВерсия формата : Version 1Профиль формата : Layer 3Режим : Joint stereoРасширение режима : MS StereoИдентификатор кодека : 55Идентификатор кодека/Подсказка : MP3Продолжительность : 1 ч. 37 м.Вид битрейта : ПостоянныйБитрейт : 128 Кбит/секКаналы : 2 каналаЧастота : 48,0 КГцМетод сжатия : С потерямиРазмер потока : 89,1 Мбайт (12%)Выравнивание : Соединение по промежуткамПродолжительность промежутка : 167 мс. (4,00 видеокадра)Время предзагрузки промежутка : 216 мс.Заголовок : iTunesБиблиотека кодирования : LAME3.99rНастройки программы : -m j -V 4 -q 2 -lowpass 17 -b 128

Скриншоты

-
[Profile]  [PM] 
Display posts:    
Reply to topic

Current time is: 19-Jul 04:21

All times are UTC + 2



You cannot post new topics in this forum
You cannot reply to topics in this forum
You cannot edit your posts in this forum
You cannot delete your posts in this forum
You cannot vote in polls in this forum
You cannot attach files in this forum
You cannot download files in this forum