Первый мститель: Противостояние / Captain America: Civil War (Джо Руссо / Joe Russo, Энтони Руссо / Anthony Russo) [2016, США, фантастика, боевик, триллер, приключения, HDRip-AVC] [IMAX Edition] Dub + Sub (rus, eng)

Reply to topic
 
Author
Message

Satyr ®

Gender: Unknown

Longevity: 11 years

Posts: 15401

Reputation: 55 [+] [-]

Satyr · Post 26-Sep-2016 13:55

[Quote] 

-Первый мститель: Противостояние / Captain America: Civil War--Год выпуска: 2016Страна: СШАЖанр: фантастика, боевик, триллер, приключения-Продолжительность: 02:49:03Перевод: Профессиональный (дублированный) [iTunes]Оригинальная аудиодорожка: нетСубтитры: (русские - Force, Full, английские - Force, Full, SDH) [.srt]--Режиссер:Джо Руссо / Joe Russo, Энтони Руссо / Anthony Russo-В ролях:Крис Эванс, Роберт Дауни мл., Скарлетт Йоханссон, Себастьян Стэн, Энтони Маки, Дон Чидл, Джереми Реннер, Чедвик Боузман-Описание:
Мстители под руководством Капитана Америки оказываются участниками разрушительного инцидента, имеющего международный масштаб. Эти события заставляют правительство задуматься над тем, чтобы начать регулировать действия всех людей с особыми способностями, введя «Акт о регистрации супергероев», вынуждая их подчиняться ООН.
Видя в этом договоре нарушение гражданских прав и плевок на всё, во что он верит, Стив Роджерс открыто восстаёт против нового режима, ведя за собой группу героев, поддерживающих его мнение. В свою очередь, Тони Старк видит смысл в новом договоре и становится во главе героев, поддерживающих его. Всё это приводит к неизбежному расколу Мстителей и войне между сторонами. Сражаясь друг с другом, Старк и Роджерс не знают о том, что таинственный Барон Земо уже строит свои собственные планы, воспользовавшись расколом величайших героев Земли.
--Дополнительная информация:- -Сэмпл Рип НЕ совместим с бытовыми DVD-проигрывателями.--Качество видео: HDRip-AVC (Исходник: ПМ_Противостояние.1080p.i.IMAX. Ton.mkv)
Формат видео: MKV
Видео: AVC (x264), 856x464 (16:9), 23.976 fps, ~1030 kbps avg, 0.108 bit/pixel
Аудио: 48 kHz, AC3 Dolby Digital, 3/2 (L,C,R,l,r) + LFE ch, 384.00 kbps (Дубляж)
Главы: есть-

MediaInfo/log

log

x264 [info]: frame I:1839 Avg QP:13.18 size: 38848
x264 [info]: frame P:48385 Avg QP:18.20 size: 11460
x264 [info]: frame B:162250 Avg QP:19.10 size: 3176
x264 [info]: consecutive B-frames: 3.1% 3.3% 9.3% 20.0% 18.1% 35.2% 4.9% 1.0% 1.0% 0.3% 2.0% 0.1% 0.1% 0.1% 0.0% 1.3% 0.1%
x264 [info]: mb I I16..4: 20.1% 55.3% 24.7%
x264 [info]: mb P I16..4: 1.6% 9.6% 2.4% P16..4: 27.2% 29.9% 8.4% 0.0% 0.0% skip:21.0%
x264 [info]: mb B I16..4: 0.2% 1.0% 0.2% B16..8: 28.1% 15.3% 2.1% direct: 2.3% skip:50.9% L0:42.2% L1:46.9% BI:10.9%
x264 [info]: 8x8 transform intra:68.2% inter:60.1%
x264 [info]: direct mvs spatial:97.2% temporal:2.8%
x264 [info]: coded y,uvDC,uvAC intra: 75.9% 61.1% 31.6% inter: 11.5% 8.1% 3.1%
x264 [info]: i16 v,h,dc,p: 19% 28% 13% 41%
x264 [info]: i8 v,h,dc,ddl,ddr,vr,hd,vl,hu: 8% 11% 5% 9% 13% 13% 15% 12% 15%
x264 [info]: i4 v,h,dc,ddl,ddr,vr,hd,vl,hu: 10% 18% 5% 8% 13% 12% 13% 9% 13%
x264 [info]: i8c dc,h,v,p: 24% 40% 19% 17%
x264 [info]: Weighted P-Frames: Y:3.3% UV:1.7%
x264 [info]: ref P L0: 53.7% 8.5% 14.9% 6.6% 4.7% 3.4% 2.7% 1.5% 1.2% 1.0% 0.8% 0.7% 0.1% 0.0%
x264 [info]: ref B L0: 76.3% 12.1% 5.0% 2.2% 1.5% 1.0% 0.8% 0.4% 0.3% 0.2% 0.1%
x264 [info]: ref B L1: 93.3% 6.7%
x264 [info]: kb/s:1030.15
General
Unique ID : 218531562893490708812302064826792500542 (0xA467A5E86058232F93046858A1CB5D3E)
Complete name : \Perviy_mstitel_Protivostoyanie_(2016)_HDRip-AVC.DUB.ac3_[All.Films][RG].mkv
Format : Matroska
Format version : Version 2
File size : 1.46 GiB
Duration : 2h 27mn
Overall bit rate : 1 414 Kbps
Movie name : Первый мститель: Противостояние / Captain America: Civil War (2016) HDRip-AVC | [All.Films][RG][torrentsland.com.ua]
Encoded date : UTC 2016-09-24 19:03:44
Writing application : mkvmerge v7.8.0 ('River Man') 32bit built on Apr 3 2015 12:11:22
Writing library : libebml v1.3.1 + libmatroska v1.4.2
Video
ID : 1
Format : AVC
Format/Info : Advanced Video Codec
Format profile : High@L4.1
Format settings, CABAC : Yes
Format settings, ReFrames : 12 frames
Codec ID : V_MPEG4/ISO/AVC
Duration : 2h 27mn
Bit rate : 1 032 Kbps
Width : 856 pixels
Height : 464 pixels
Display aspect ratio : 1.85:1
Frame rate mode : Constant
Frame rate : 23.976 fps
Color space : YUV
Chroma subsampling : 4:2:0
Bit depth : 8 bits
Scan type : Progressive
Bits/(Pixel*Frame) : 0.108
Stream size : 1.04 GiB (71%)
Writing library : x264 core 148 r2638kMod 7599210
Encoding settings : cabac=1 / ref=12 / deblock=1:-2:-2 / analyse=0x3:0x113 / me=umh / subme=11 / psy=1 / fade_compensate=0.00 / psy_rd=1.00:0.00 / mixed_ref=1 / me_range=38 / chroma_me=1 / trellis=2 / 8x8dct=1 / cqm=0 / deadzone=21,11 / fast_pskip=0 / chroma_qp_offset=-2 / threads=6 / lookahead_threads=1 / sliced_threads=0 / nr=0 / decimate=0 / interlaced=0 / bluray_compat=0 / constrained_intra=0 / fgo=0 / bframes=16 / b_pyramid=2 / b_adapt=2 / b_bias=0 / direct=3 / weightb=1 / open_gop=0 / weightp=2 / keyint=240 / keyint_min=23 / scenecut=40 / intra_refresh=0 / rc_lookahead=60 / rc=2pass / mbtree=0 / bitrate=1032 / ratetol=1.0 / qcomp=0.60 / qpmin=0 / qpmax=69 / qpstep=4 / cplxblur=20.0 / qblur=0.5 / vbv_maxrate=50000 / vbv_bufsize=62500 / nal_hrd=none / filler=0 / ip_ratio=1.40 / pb_ratio=1.30 / aq=3:1.00 / zones=201600,210600,q=30
Default : Yes
Forced : No
Audio
ID : 2
Format : AC-3
Format/Info : Audio Coding 3
Mode extension : CM (complete main)
Format settings, Endianness : Big
Codec ID : A_AC3
Duration : 2h 27mn
Bit rate mode : Constant
Bit rate : 384 Kbps
Channel(s) : 6 channels
Channel positions : Front: L C R, Side: L R, LFE
Sampling rate : 48.0 KHz
Compression mode : Lossy
Stream size : 406 MiB (27%)
Title : Дубляж
Language : Russian
Default : Yes
Forced : No
Text #1
ID : 3
Format : UTF-8
Codec ID : S_TEXT/UTF8
Codec ID/Info : UTF-8 Plain Text
Title : Force
Language : Russian
Default : Yes
Forced : Yes
Text #2
ID : 4
Format : UTF-8
Codec ID : S_TEXT/UTF8
Codec ID/Info : UTF-8 Plain Text
Title : Full
Language : Russian
Default : No
Forced : No
Text #3
ID : 5
Format : UTF-8
Codec ID : S_TEXT/UTF8
Codec ID/Info : UTF-8 Plain Text
Title : Force
Language : English
Default : No
Forced : No
Text #4
ID : 6
Format : UTF-8
Codec ID : S_TEXT/UTF8
Codec ID/Info : UTF-8 Plain Text
Title : Full
Language : English
Default : No
Forced : No
Text #5
ID : 7
Format : UTF-8
Codec ID : S_TEXT/UTF8
Codec ID/Info : UTF-8 Plain Text
Title : SDH
Language : English
Default : No
Forced : No
Menu
00:00:00.000 : en:00:00:00.000
00:09:01.958 : en:00:09:01.958
00:13:04.993 : en:00:13:04.993
00:21:03.345 : en:00:21:03.345
00:27:53.380 : en:00:27:53.380
00:31:57.290 : en:00:31:57.290
00:35:08.398 : en:00:35:08.398
00:42:58.451 : en:00:42:58.451
00:52:04.621 : en:00:52:04.621
01:05:39.102 : en:01:05:39.102
01:16:41.639 : en:01:16:41.639
01:22:28.777 : en:01:22:28.777
01:29:29.489 : en:01:29:29.489
01:34:09.769 : en:01:34:09.769
01:45:38.582 : en:01:45:38.582
01:55:54.322 : en:01:55:54.322
02:02:35.056 : en:02:02:35.056
02:12:14.176 : en:02:12:14.176
02:18:29.384 : en:02:18:29.384

FAQ по просмотру MKV/h.264/AAC

[Profile]  [PM] 
Display posts:    
Reply to topic

Current time is: 25-Sep 06:35

All times are UTC + 2



You cannot post new topics in this forum
You cannot reply to topics in this forum
You cannot edit your posts in this forum
You cannot delete your posts in this forum
You cannot vote in polls in this forum
You cannot attach files in this forum
You cannot download files in this forum