Человек – швейцарский нож / Swiss Army Man (Дэн Кван / Dan Kwan, Дэниэл Шайнерт / Daniel Scheinert) [2016, США, фэнтези, драма, мелодрама, HDRip-AVC] Dub

Reply to topic
 
Author
Message

Satyr ®

Gender: Unknown

Longevity: 11 years

Posts: 15401

Reputation: 55 [+] [-]

Satyr · Post 26-Sep-2016 13:55

[Quote] 

Человек – швейцарский нож / Swiss Army Man«Труп познается в беде»- Страна: США
Жанр: фэнтези, драма, мелодрама, комедия, приключения
Год выпуска: 2016
Продолжительность: 01:37:23
Перевод: Профессиональный (дублированный) (iTunes)
Оригинальная аудиодорожка: нет
Субтитры: нет
Навигация по главам: есть
Режиссеры: Дэн Кван / Dan Kwan, Дэниэл Шайнерт / Daniel Scheinert
В ролях: Пол Дано (Hank), Дэниэл Рэдклифф (Manny), Мэри Элизабет Уинстэд (Sarah), Антония Риберо (Crissie), Тимоти Йолих (Preston), Ричард Гросс (Hanks Dad), Марика Кастил (Reporter), Энди Халл (Cameraman), Аарон Маршалл (Officer #1), Шейн Каррут (Coroner), Джессика Харбек (Lady Cop)
Описание: Оказавшись на необитаемом острове, Хэнк уже был готов потерять всякую надежду, но все меняется, когда на берегу он находит труп по имени Мэнни.- -Качество: HDRip-AVC (исходник - Swiss.Army.Man.2016.1080p.BluRay.x264-GECKOS)
Формат видео: MKV
Видео: x264, 1032x430 (2.40:1), 23,976 fps, ~1748 kbps, 0,164 bit/pixel
Аудио: 48 kHz, AC3 Dolby Digital, 3/2 (L,C,R,l,r) + LFE ch, ~384 kbps-

MediaInfo | x264 log

Format : Matroska
Format version : Version 4 / Version 2
File size : 1.48 GiB
Duration : 1 h 37 min
Overall bit rate : 2 176 kb/s
Movie name : Человек – швейцарский нож / Swiss Army Man (2016) :: AFM ::
Encoded date : UTC 2016-09-24 16:41:02
Writing application : mkvmerge v8.3.0 ('Over the Horizon') 32bit
Writing library : libebml v1.3.1 + libmatroska v1.4.2
Video
ID : 1
Format : AVC
Format/Info : Advanced Video Codec
Format profile : High@L4.1
Format settings, CABAC : Yes
Format settings, ReFrames : 10 frames
Codec ID : V_MPEG4/ISO/AVC
Duration : 1 h 37 min
Bit rate : 1 749 kb/s
Width : 1 032 pixels
Height : 430 pixels
Display aspect ratio : 2.40:1
Frame rate mode : Constant
Frame rate : 23.976 (24000/1001) FPS
Color space : YUV
Chroma subsampling : 4:2:0
Bit depth : 8 bits
Scan type : Progressive
Bits/(Pixel*Frame) : 0.164
Stream size : 1.19 GiB (80%)
Title : HDRip by AFM
Writing library : x264 core 148 r2705+54 9f484c1 t_mod_Custom [8-bit@all X86_64]
Encoding settings : cabac=1 / ref=10 / deblock=1:-2:-1 / analyse=0x3:0x113 / me=umh / subme=10 / psy=1 / fade_compensate=0.00 / psy_rd=1.00:0.00 / mixed_ref=1 / me_range=32 / chroma_me=1 / trellis=2 / 8x8dct=1 / cqm=0 / deadzone=21,11 / fast_pskip=0 / chroma_qp_offset=-2 / threads=6 / lookahead_threads=1 / sliced_threads=0 / nr=0 / decimate=1 / interlaced=0 / bluray_compat=0 / constrained_intra=0 / fgo=0 / bframes=12 / b_pyramid=2 / b_adapt=2 / b_bias=0 / direct=1 / weightb=1 / open_gop=0 / weightp=2 / keyint=250 / keyint_min=23 / scenecut=40 / intra_refresh=0 / rc_lookahead=40 / rc=crf / mbtree=0 / crf=19.8000 / qcomp=0.65 / qpmin=0:0:0 / qpmax=69:69:69 / qpstep=4 / vbv_maxrate=50000 / vbv_bufsize=62500 / crf_max=0.0 / nal_hrd=none / filler=0 / ip_ratio=1.35 / pb_ratio=1.30 / aq=3:0.80 / aq-sensitivity=10.00 / aq-factor=1.00:1.00:1.00 / aq2=0 / aq3=0
Language : English
Default : Yes
Forced : No
Audio
ID : 2
Format : AC-3
Format/Info : Audio Coding 3
Mode extension : CM (complete main)
Format settings, Endianness : Big
Codec ID : A_AC3
Duration : 1 h 37 min
Bit rate mode : Constant
Bit rate : 384 kb/s
Channel(s) : 6 channels
Channel positions : Front: L C R, Side: L R, LFE
Sampling rate : 48.0 kHz
Frame rate : 31.250 FPS (1536 spf)
Compression mode : Lossy
Stream size : 267 MiB (18%)
Title : Dub, AC3 5.1 ~384 kbps
Language : Russian
Default : Yes
Forced : No
Menu
00:00:00.000 : en:00:00:00.000
00:08:47.902 : en:00:08:47.902
00:13:14.335 : en:00:13:14.335
00:17:42.228 : en:00:17:42.228
00:25:11.593 : en:00:25:11.593
00:32:46.256 : en:00:32:46.256
00:37:17.068 : en:00:37:17.068
00:44:39.260 : en:00:44:39.260
00:51:44.101 : en:00:51:44.101
00:57:57.224 : en:00:57:57.224
01:03:19.337 : en:01:03:19.337
01:06:17.140 : en:01:06:17.140
01:10:05.535 : en:01:10:05.535
01:16:40.679 : en:01:16:40.679
01:22:10.092 : en:01:22:10.092
01:27:31.788 : en:01:27:31.788

x264

x264 [info]: frame I:1098 Avg QP:18.07 size: 59491
x264 [info]: frame P:30641 Avg QP:20.06 size: 19796
x264 [info]: frame B:108353 Avg QP:22.59 size: 5869
x264 [info]: consecutive B-frames: 1.9% 1.7% 5.5% 35.9% 14.6% 29.0% 4.2% 3.2% 0.7% 1.7% 0.4% 0.4% 1.0%
x264 [info]: mb I I16..4: 8.9% 75.0% 16.1%
x264 [info]: mb P I16..4: 0.8% 8.7% 1.2% P16..4: 38.2% 24.6% 14.7% 0.0% 0.0% skip:11.7%
x264 [info]: mb B I16..4: 0.0% 0.8% 0.2% B16..8: 34.5% 8.0% 2.6% direct: 4.7% skip:49.2% L0:41.0% L1:47.3% BI:11.7%
x264 [info]: 8x8 transform intra:79.6% inter:62.4%
x264 [info]: coded y,uvDC,uvAC intra: 84.6% 78.8% 52.1% inter: 20.7% 13.8% 2.1%
x264 [info]: i16 v,h,dc,p: 57% 13% 11% 19%
x264 [info]: i8 v,h,dc,ddl,ddr,vr,hd,vl,hu: 7% 10% 9% 9% 14% 13% 14% 11% 13%
x264 [info]: i4 v,h,dc,ddl,ddr,vr,hd,vl,hu: 6% 8% 4% 10% 16% 14% 15% 11% 15%
x264 [info]: i8c dc,h,v,p: 45% 24% 16% 15%
x264 [info]: Weighted P-Frames: Y:7.4% UV:4.4%
x264 [info]: ref P L0: 50.4% 11.9% 16.0% 5.6% 4.7% 3.3% 3.1% 1.6% 1.6% 1.5% 0.2% 0.0%
x264 [info]: ref B L0: 77.0% 10.4% 4.9% 2.5% 1.8% 1.4% 1.2% 0.6% 0.3%
x264 [info]: ref B L1: 94.6% 5.4%
x264 [info]: kb/s:1790.60

Скриншоты

с названием

[Profile]  [PM] 
Display posts:    
Reply to topic

Current time is: 19-Sep 10:08

All times are UTC + 2



You cannot post new topics in this forum
You cannot reply to topics in this forum
You cannot edit your posts in this forum
You cannot delete your posts in this forum
You cannot vote in polls in this forum
You cannot attach files in this forum
You cannot download files in this forum