Механик: Воскрешение / Mechanic: Resurrection (Дэннис Ганзель) [2016 г., Боевик, триллер, криминал, WEBRip]Dub|Звук c TS

Reply to topic
 
Author
Message

groozin ®

Gender: Male

Longevity: 4 years

Posts: 45

Reputation: 0 [+] [-]

Location: ЛНР

groozin · Post 28-Sep-2016 15:24

[Quote] 

Механик: Воскрешение
/ Mechanic: Resurrection
-«Four continents. Three kills... Or the love of his life is dead»-
Год выпуска: 2016
Страна: Франция, США / Chartoff-Winkler Productions, Davis-Films, ME2 Productions, Millennium Films
Жанр: Боевик, триллер, криминал
Продолжительность: 01:37:00
Перевод: Дублированный, звук c TS
Режиссер: Дэннис Ганзель
В ролях: Джейсон Стэйтем, Джессика Альба, Томми Ли Джонс, Мишель Йео, Наталия Гуслистая, Ейяинг Рхатха Пхонгам, Сэм Хэзелдайн, Джон Ченатьемпо, Райчо Василев, Аарон Брамфилд

Описание:
Артура Бишопа, давно оставившего свое криминальное ремесло, вынуждают снова вступить в игру. Чтобы похитители вернули его возлюбленную, он должен сделать то, что у него получается лучше всего: от него требуется совершить три убийства, идеально обставленных как несчастные случаи.
- -17+         Рейтинг R- зрителям, достигшим 17 лет-Внимание! Присутствует реклама спонсора показа!!!

MediaInfo:

Общее
Полное имя : E:\TORRENTY\Films\Mehanik.Voskreshenie.2016.WEB-DLRip.1400MB\Mehanik.Voskreshenie.2016.WEB-DLRip.1400MB\Mehanik.Voskreshenie.2016.WEB-DLRip.1400MB.avi
Формат : AVI
Формат/Информация : Audio Video Interleave
Размер файла : 1,36 Гбайт
Продолжительность : 1 ч. 36 м.
Общий поток : 2008 Кбит/сек
Программа кодирования : VirtualDubMod 1.5.10.2 (build 2540/release)
Библиотека кодирования : VirtualDub build 32618/release
Видео
Идентификатор : 0
Формат : MPEG-4 Visual
Профиль формата : Advanced Simple@L5
Параметр BVOP формата : 2
Параметр QPel формата : Нет
Параметр GMC формата : Без точки перехода
Параметр матрицы формата : Default (MPEG)
Идентификатор кодека : XVID
Идентификатор кодека/Подсказка : XviD
Продолжительность : 1 ч. 36 м.
Битрейт : 1807 Кбит/сек
Ширина : 720 пикселей
Высота : 304 пикселя
Соотношение сторон : 2,35:1
Частота кадров : 23,976 (24000/1001) кадра/сек
Цветовое пространство : YUV
Субдискретизация насыщенности : 4:2:0
Битовая глубина : 8 бит
Тип развёртки : Прогрессивная
Метод сжатия : С потерями
Бит/(Пиксели*Кадры) : 0.344
Размер потока : 1,22 Гбайт (90%)
Библиотека кодирования : XviD 1.2.1 (UTC 2008-12-04)
Аудио
Идентификатор : 1
Формат : AC-3
Формат/Информация : Audio Coding 3
Расширение режима : CM (complete main)
Параметр Endianness формата : Big
Идентификатор кодека : 2000
Продолжительность : 1 ч. 36 м.
Вид битрейта : Постоянный
Битрейт : 192 Кбит/сек
Каналы : 2 канала
Расположение каналов : Front: L R
Частота : 48,0 КГц
Частота кадров : 31,250 кадров/сек (1536 spf)
Метод сжатия : С потерями
Задержка видео : 14 мс.
Размер потока : 133 Мбайт (10%)
Выравнивание : Разделение по промежуткам
Продолжительность промежутка : 42 мс. (1,00 видеокадр)
Время предзагрузки промежутка : 500 мс.
Качество: WEBRip
Формат: AVI
Данные видео: 720x304, XviD, 1807 Kbps, 23.976 fps, 0.344 Бит/(Пиксели*Кадры)
Аудио: русский: AC3, 192 Kbps, 2 ch, 48 kHz

Субтитры: корейские, вшитые [хардсаб]

Скриншоты


[Profile]  [PM] 
Display posts:    
Reply to topic

Current time is: 20-Sep 21:42

All times are UTC + 2



You cannot post new topics in this forum
You cannot reply to topics in this forum
You cannot edit your posts in this forum
You cannot delete your posts in this forum
You cannot vote in polls in this forum
You cannot attach files in this forum
You cannot download files in this forum