День независимости: Возрождение / Independence Day: Resurgence (Роланд Эммерих / Roland Emmerich) [2016, США, фантастика, боевик, приключения, WEB-DLRip-AVC] Dub + Original + Sub (rus, eng)

Reply to topic
 
Author
Message

Satyr ®

Gender: Unknown

Longevity: 11 years

Posts: 15401

Reputation: 55 [+] [-]

Satyr · Post 29-Sep-2016 03:35

[Quote] 

День независимости: Возрождение / Independence Day: Resurgence«У нас было двадцать лет на подготовку. У них тоже»- Страна: США
Жанр: фантастика, боевик, приключения
Год выпуска: 2016
Продолжительность: 02:00:12
Перевод: Профессиональный (дублированный) (iTunes)
Оригинальная аудиодорожка: английский
Субтитры: русские (форс., полные), английские (полные)
Навигация по главам: есть
Режиссер: Роланд Эммерих / Roland Emmerich
В ролях: Лиам Хемсворт (Jake Morrison), Джефф Голдблюм (David Levinson), Джесси Ашер (Dylan Hiller), Билл Пуллман (President Whitmore), Майка Монро (Patricia Whitmore), Села Уорд (President Lanford), Уильям Фихтнер (General Adams), Джадд Хёрш (Julius Levinson), Брент Спайнер (Dr. Brakish Okun), Патрик Ст. Эсприт (Secretary of Defense Tanner), Вивика А. Фокс (Jasmine Hiller), Анджела Бейби (Rain Lao)
Описание: Используя инопланетные технологии, жители Земли создали специальную программу по защите планеты. Но ничего не может нас спасти от нового, еще более разрушительного и масштабного инопланетного вторжения - только смелость нескольких героев, которые единственные могут спасти наш мир от уничтожения.- -Качество: WEB-DLRip-AVC (исходник - Independence.Day.Resurgence.2016.1080p.WEB-DL.DD5.1.H264-FGT)
Формат видео: MKV
Видео: x264, 1152x480 (2.40:1), 23,976 fps, ~2184 kbps, 0.165 bit/pixel
Аудио 1: 48 kHz, AC3 Dolby Digital, 5.1 (Front: L C R, Side: L R, LFE) ch, ~ 384 kbps [русский]
Аудио 2: 48 kHz, AC3 Dolby Digital, 5.1 (Front: L C R, Side: L R, LFE) ch, ~ 384 kbps [английский]
Формат субтитров: softsub (SRT)-

MediaInfo | x264 log

Format : Matroska
Format version : Version 4 / Version 2
File size : 2.53 GiB
Duration : 2h 0 min
Overall bit rate : 3 008 kb/s
Movie name : День независимости: Возрождение / Independence Day: Resurgence (2016) :: AFM ::
Encoded date : UTC 2016-09-28 20:38:50
Writing application : mkvmerge v8.3.0 ('Over the Horizon') 32bit
Writing library : libebml v1.3.1 + libmatroska v1.4.2
Video
ID : 1
Format : AVC
Format/Info : Advanced Video Codec
Format profile : High@L4.1
Format settings, CABAC : Yes
Format settings, ReFrames : 9 frames
Codec ID : V_MPEG4/ISO/AVC
Duration : 2h 0 min
Bit rate : 2 180 kb/s
Width : 1 152 pixels
Height : 480 pixels
Display aspect ratio : 2.40:1
Frame rate mode : Constant
Frame rate : 23.976 (24000/1001) FPS
Color space : YUV
Chroma subsampling : 4:2:0
Bit depth : 8 bits
Scan type : Progressive
Bits/(Pixel*Frame) : 0.164
Stream size : 1.83 GiB (72%)
Title : WEB_DLRip by AFM
Writing library : x264 core 148 r2705+54 9f484c1 t_mod_Custom [8-bit@all X86_64]
Encoding settings : cabac=1 / ref=9 / deblock=1:-2:-2 / analyse=0x3:0x113 / me=umh / subme=10 / psy=1 / fade_compensate=0.00 / psy_rd=1.00:0.00 / mixed_ref=1 / me_range=32 / chroma_me=1 / trellis=2 / 8x8dct=1 / cqm=0 / deadzone=21,11 / fast_pskip=0 / chroma_qp_offset=-2 / threads=6 / lookahead_threads=1 / sliced_threads=0 / nr=0 / decimate=1 / interlaced=0 / bluray_compat=0 / constrained_intra=0 / fgo=0 / bframes=12 / b_pyramid=2 / b_adapt=2 / b_bias=0 / direct=1 / weightb=1 / open_gop=0 / weightp=2 / keyint=250 / keyint_min=23 / scenecut=40 / intra_refresh=0 / rc_lookahead=40 / rc=crf / mbtree=0 / crf=18.8000 / qcomp=0.65 / qpmin=0:0:0 / qpmax=69:69:69 / qpstep=4 / vbv_maxrate=50000 / vbv_bufsize=62500 / crf_max=0.0 / nal_hrd=none / filler=0 / ip_ratio=1.35 / pb_ratio=1.30 / aq=3:0.80 / aq-sensitivity=10.00 / aq-factor=1.00:1.00:1.00 / aq2=0 / aq3=0
Language : English
Default : Yes
Forced : No
Audio #1
ID : 2
Format : AC-3
Format/Info : Audio Coding 3
Mode extension : CM (complete main)
Format settings, Endianness : Big
Codec ID : A_AC3
Duration : 2h 0 min
Bit rate mode : Constant
Bit rate : 384 kb/s
Channel(s) : 6 channels
Channel positions : Front: L C R, Side: L R, LFE
Sampling rate : 48.0 kHz
Frame rate : 31.250 FPS (1536 spf)
Compression mode : Lossy
Stream size : 330 MiB (13%)
Title : Dub, AC3 5.1 ~384 kbps
Language : Russian
Default : Yes
Forced : No
Audio #2
ID : 3
Format : AC-3
Format/Info : Audio Coding 3
Mode extension : CM (complete main)
Format settings, Endianness : Big
Codec ID : A_AC3
Duration : 2h 0 min
Bit rate mode : Constant
Bit rate : 384 kb/s
Channel(s) : 6 channels
Channel positions : Front: L C R, Side: L R, LFE
Sampling rate : 48.0 kHz
Frame rate : 31.250 FPS (1536 spf)
Compression mode : Lossy
Stream size : 330 MiB (13%)
Title : Original, AC3 5.1 ~384 kbps
Language : English
Default : No
Forced : No
Text #1
ID : 4
Format : UTF-8
Codec ID : S_TEXT/UTF8
Codec ID/Info : UTF-8 Plain Text
Title : forced
Language : Russian
Default : Yes
Forced : No
Text #2
ID : 5
Format : UTF-8
Codec ID : S_TEXT/UTF8
Codec ID/Info : UTF-8 Plain Text
Language : Russian
Default : No
Forced : No
Text #3
ID : 6
Format : UTF-8
Codec ID : S_TEXT/UTF8
Codec ID/Info : UTF-8 Plain Text
Language : English
Default : No
Forced : No
Menu
00:00:00.000 : en:1
00:05:36.378 : en:2
00:09:14.512 : en:3
00:14:05.761 : en:4
00:19:39.511 : en:5
00:22:58.042 : en:6
00:27:09.293 : en:7
00:31:36.685 : en:8
00:39:11.014 : en:9
00:43:40.158 : en:10
00:47:45.653 : en:11
00:52:31.230 : en:12
00:59:09.294 : en:13
01:01:59.172 : en:14
01:07:11.108 : en:15
01:09:53.854 : en:16
01:13:10.759 : en:17
01:18:26.491 : en:18
01:22:44.540 : en:19
01:27:50.846 : en:20
01:32:35.755 : en:21
01:39:37.176 : en:22
01:47:19.179 : en:23
01:50:35.750 : en:24

x264

x264 [info]: frame I:58 Avg QP:15.73 size: 52563
x264 [info]: frame P:609 Avg QP:17.16 size: 23387
x264 [info]: frame B:1836 Avg QP:20.09 size: 7338
x264 [info]: consecutive B-frames: 3.5% 3.1% 7.7% 56.4% 10.2% 13.4% 1.4% 2.2% 0.4% 0.8% 0.4% 0.5%
x264 [info]: mb I I16..4: 9.5% 71.3% 19.2%
x264 [info]: mb P I16..4: 1.8% 12.5% 1.6% P16..4: 37.6% 27.7% 13.1% 0.0% 0.0% skip: 5.7%
x264 [info]: mb B I16..4: 0.1% 0.8% 0.1% B16..8: 38.8% 10.6% 2.8% direct: 5.3% skip:41.5% L0:41.0% L1:46.5% BI:12.5%
x264 [info]: 8x8 transform intra:75.9% inter:62.6%
x264 [info]: coded y,uvDC,uvAC intra: 82.1% 80.9% 58.2% inter: 21.2% 14.3% 2.5%
x264 [info]: i16 v,h,dc,p: 44% 12% 8% 36%
x264 [info]: i8 v,h,dc,ddl,ddr,vr,hd,vl,hu: 9% 9% 9% 11% 12% 12% 12% 12% 14%
x264 [info]: i4 v,h,dc,ddl,ddr,vr,hd,vl,hu: 9% 10% 4% 11% 14% 12% 14% 11% 15%
x264 [info]: i8c dc,h,v,p: 41% 27% 18% 15%
x264 [info]: Weighted P-Frames: Y:6.9% UV:4.1%
x264 [info]: ref P L0: 56.4% 8.2% 17.4% 6.3% 4.1% 2.8% 2.2% 1.4% 1.0% 0.1% 0.0%
x264 [info]: ref B L0: 80.3% 10.5% 4.3% 2.0% 1.3% 0.9% 0.5% 0.2%
x264 [info]: ref B L1: 95.8% 4.2%
x264 [info]: kb/s:2357.47

Скриншоты

с названием

Торрент перезалит - замена русской дорожки на iTunes, добавлены русс. субтитры
[Profile]  [PM] 
Display posts:    
Reply to topic

Current time is: 26-Sep 04:31

All times are UTC + 2



You cannot post new topics in this forum
You cannot reply to topics in this forum
You cannot edit your posts in this forum
You cannot delete your posts in this forum
You cannot vote in polls in this forum
You cannot attach files in this forum
You cannot download files in this forum