Сатанинский / Satanic (Джеффри Дж. Хант / Jeffrey G. Hunt) [2016, США, ужасы, HDRip] VO (Хихикающий доктор)

Reply to topic
 
Author
Message

Satyr ®

Online

Gender: Unknown

Longevity: 11 years

Posts: 15401

Reputation: 55 [+] [-]

Satyr · Post 29-Sep-2016 20:00

[Quote] 

Сатанинский / Satanic
Страна: США
Жанр: ужасы
Год выпуска: 2016
Продолжительность: 01:24:17
Перевод: Одноголосый закадровый - Хихикающий доктор
Cубтитры: нет
Режиссер: Джеффри Дж. Хант / Jeffrey G. Hunt
В ролях: Сара Хайланд, Стивен Крюгер, Джастин Чон, Клара Мамет, Софи Дала, Энтони Кэрриган, Марк Барнс, Стевин Найт, Уилльям Доберт, Джеффри Дж. Хант
Описание: Четверо друзей отправляются на музыкальный фестиваль Коачелла. Герои делают остановку в Лос-Анджелесе, чтобы посетить места, где некогда были совершены массовые убийства, сопровождавшиеся оккультными обрядами. Вскоре они знакомятся с молодой девушкой, которая становится их проводником в мир бесконечного ужаса.

Сэмпл
Качество видео: HDRip (Исходник: BDRip 1080p | Rutor)
Формат видео: AVI
Видео: 720x304 (2.37:1), 23.976 fps, XviD build 73 ~1094 kbps avg, 0.21 bit/pixel
Аудио: 44.100 kHz, MPEG Layer 3, 2 ch, ~128.00 kbps avg

MediaInfo

Общее
Полное имя : D:\Фильмы на раздачу\Сатанинский (2016) HDRip 743.avi
Формат : AVI
Формат/Информация : Audio Video Interleave
Размер файла : 743 Мбайт
Продолжительность : 1 ч. 24 м.
Общий поток : 1232 Кбит/сек
Программа кодирования : VirtualDubMod 1.5.10.3 | www.virtualdub-fr.org || (build 2550/release)
Библиотека кодирования : VirtualDubMod build 2550/release
Видео
Идентификатор : 0
Формат : MPEG-4 Visual
Профиль формата : Advanced Simple@L5
Параметр BVOP формата : 1
Параметр QPel формата : Нет
Параметр GMC формата : Без точки перехода
Параметр матрицы формата : Выборочная
Идентификатор кодека : XVID
Идентификатор кодека/Подсказка : XviD
Продолжительность : 1 ч. 24 м.
Битрейт : 1095 Кбит/сек
Ширина : 720 пикселей
Высота : 304 пикселя
Соотношение сторон : 2,35:1
Частота кадров : 23,976 (23976/1000) кадра/сек
Цветовое пространство : YUV
Субдискретизация насыщенности : 4:2:0
Битовая глубина : 8 бит
Тип развёртки : Прогрессивная
Метод сжатия : С потерями
Бит/(Пиксели*Кадры) : 0.209
Размер потока : 660 Мбайт (89%)
Библиотека кодирования : XviD 73
Аудио
Идентификатор : 1
Формат : MPEG Audio
Версия формата : Version 1
Профиль формата : Layer 3
Идентификатор кодека : 55
Идентификатор кодека/Подсказка : MP3
Продолжительность : 1 ч. 24 м.
Вид битрейта : Постоянный
Битрейт : 128 Кбит/сек
Каналы : 2 канала
Частота : 44,1 КГц
Метод сжатия : С потерями
Размер потока : 77,2 Мбайт (10%)
Выравнивание : Разделение по промежуткам
Продолжительность промежутка : 42 мс. (1,00 видеокадр)
Время предзагрузки промежутка : 500 мс.
Библиотека кодирования : LAME3.98r
Настройки программы : -m s -V 4 -q 0 -lowpass 17 -b 128

Скриншоты

[Profile]  [PM] 
Display posts:    
Reply to topic

Current time is: 24-Sep 03:09

All times are UTC + 2



You cannot post new topics in this forum
You cannot reply to topics in this forum
You cannot edit your posts in this forum
You cannot delete your posts in this forum
You cannot vote in polls in this forum
You cannot attach files in this forum
You cannot download files in this forum