Абатуар. Лабиринт страха / Abattoir (Даррен Линн Боусман / Darren Lynn Bousman) [2016, США, ужасы, триллер, HDRip] DVO (Levelin)

Reply to topic
 
Author
Message

Satyr ®

Gender: Unknown

Longevity: 11 years

Posts: 15401

Reputation: 55 [+] [-]

Satyr · Post 30-Sep-2016 20:40

[Quote] 

--Абатуар. Лабиринт страха / Abattoir-- Страна: США
Студия: Dark Web Productions
Жанр: ужасы, триллер
Год выпуска: 2016
Продолжительность: 01:39:04
Перевод: Любительский (двухголосый закадровый) [Levelin]
Cубтитры: нет
Оригинальная аудиодорожка: нет-Режиссер: Даррен Линн Боусман / Darren Lynn Bousman
В ролях: Джессика Лаундес, Джо Андерсон, Лин Шэй, Майкл Паре, Дэйтон Калли, Брайан Бэтт, Джон МакКоннелл, Эйден Флауэрс, Томас Мерфи, Джэй Хьюджули-Описание: Журналистка Джулия ведет расследование странных обстоятельств смерти своей сестры. Муж, одержимый жуткими видениями, убил жену и сына, а комната, где произошло преступление, исчезла. Джулия выясняет, что такое уже случалось раньше, а покупателем домов, где произошли убийства, всегда выступал человек по имени Джеремайя Крон. Следы таинственного покупателя приводят Джулию в затерявшееся на карте место, где из материалов пропавших комнат строится дом с призраками. Но самое страшное — не сам дом, а кому и для чего он нужен.-Релиз: - -Качество видео: HDRip
Формат видео: AVI
Видео: XVID, 720x304, 16:9, 23.976 FPS, 810 kb/s
Аудио: MP3, 48.0 kHz, 192 kb/s, 2 ch.

MediaInfo

Format : AVI
Format/Info : Audio Video Interleave
File size : 717 MiB
Duration : 1 h 39 min
Overall bit rate : 1 011 kb/s
Writing application : VirtualDubMod 1.5.10.3 | www.virtualdub-fr.org || (build 2550/release)
Writing library : VirtualDubMod build 2550/release
Video
ID : 0
Format : MPEG-4 Visual
Format profile : Advanced Simple@L5
Format settings, BVOP : 2
Format settings, QPel : No
Format settings, GMC : No warppoints
Format settings, Matrix : Default (MPEG)
Codec ID : XVID
Codec ID/Hint : XviD
Duration : 1 h 39 min
Bit rate : 810 kb/s
Width : 720 pixels
Height : 304 pixels
Display aspect ratio : 2.35:1
Frame rate : 23.976 (23976/1000) FPS
Color space : YUV
Chroma subsampling : 4:2:0
Bit depth : 8 bits
Scan type : Progressive
Compression mode : Lossy
Bits/(Pixel*Frame) : 0.154
Stream size : 574 MiB (80%)
Writing library : XviD 1.2.1 (UTC 2008-12-04)
Audio
ID : 1
Format : MPEG Audio
Format version : Version 1
Format profile : Layer 3
Mode : Joint stereo
Codec ID : 55
Codec ID/Hint : MP3
Duration : 1 h 39 min
Bit rate mode : Constant
Bit rate : 192 kb/s
Channel(s) : 2 channels
Sampling rate : 48.0 kHz
Compression mode : Lossy
Stream size : 136 MiB (19%)
Alignment : Aligned on interleaves
Interleave, duration : 42 ms (1.00 video frame)
Interleave, preload duratio : 504 ms
Writing library : LAME3.99r
Encoding settings : -m j -V 4 -q 2 -lowpass 18.6 -b 192

Скриншот c названием фильма

Скриншоты

[Profile]  [PM] 
Display posts:    
Reply to topic

Current time is: 18-Sep 14:54

All times are UTC + 2



You cannot post new topics in this forum
You cannot reply to topics in this forum
You cannot edit your posts in this forum
You cannot delete your posts in this forum
You cannot vote in polls in this forum
You cannot attach files in this forum
You cannot download files in this forum