Первый мститель: Противостояние / Captain America: Civil War (Джо Руссо / Joe Russo, Энтони Руссо / Anthony Russo) [2016, США, фантастика, боевик, триллер, приключения, HDRip] [IMAX Edition] Dub + Sub (rus forced)

Reply to topic
 
Author
Message

Satyr ®

Gender: Unknown

Longevity: 11 years

Posts: 15401

Reputation: 55 [+] [-]

Satyr · Post 01-Oct-2016 17:15

[Quote] 

-Первый мститель: Противостояние / Captain America: Civil War--Год выпуска: 2016Страна: СШАЖанр: фантастика, боевик, триллер, приключения-Продолжительность: 02:27:57Перевод: Профессиональный (дублированный) [iTunes]Оригинальная аудиодорожка: нетСубтитры: (русские - форсированные) [.srt]--Режиссер:Джо Руссо / Joe Russo, Энтони Руссо / Anthony Russo-В ролях:Крис Эванс, Роберт Дауни мл., Скарлетт Йоханссон, Себастьян Стэн, Энтони Маки, Дон Чидл, Джереми Реннер, Чедвик Боузман-Описание:
Мстители под руководством Капитана Америки оказываются участниками разрушительного инцидента, имеющего международный масштаб. Эти события заставляют правительство задуматься над тем, чтобы начать регулировать действия всех людей с особыми способностями, введя «Акт о регистрации супергероев», вынуждая их подчиняться ООН.
Видя в этом договоре нарушение гражданских прав и плевок на всё, во что он верит, Стив Роджерс открыто восстаёт против нового режима, ведя за собой группу героев, поддерживающих его мнение. В свою очередь, Тони Старк видит смысл в новом договоре и становится во главе героев, поддерживающих его. Всё это приводит к неизбежному расколу Мстителей и войне между сторонами. Сражаясь друг с другом, Старк и Роджерс не знают о том, что таинственный Барон Земо уже строит свои собственные планы, воспользовавшись расколом величайших героев Земли.
--Дополнительная информация:- -Сэмпл Рип совместим с бытовыми DVD-проигрывателями.--Качество видео: HDRip (Исходник: ПМ_Противостояние.1080p.i.IMAX. Ton.mkv)
Формат видео: AVI
Видео: XviD build 73, 704x384 (16:9), 23.976 fps, ~1275 kbps avg, 0.197 bit/pixel
Аудио: MPEG Layer 3, 2 ch, 48 kHz, 128 kbps (Dub)-

Скриншоты



Скриншот с названием

MediaInfo

General
Complete name : \Perviy_mstitel_Protivostoyanie_(2016)_HDRip.DUB.mp3_[All.Films][RG].avi
Format : AVI
Format/Info : Audio Video Interleave
File size : 1.46 GiB
Duration : 2h 27mn
Overall bit rate : 1 413 Kbps
Movie name : Первый мститель: Противостояние / Captain America: Civil War (2016) HDRip | [All.Films][RG][torrentsland.com.ua]
Director : [All.Films][RG][torrentsland.com.ua]
Writing application : VirtualDubMod 1.5.10.3 | www.virtualdub-fr.org || (build 2550/release)
Copyright : [All.Films][RG][torrentsland.com.ua]
Video
ID : 0
Format : MPEG-4 Visual
Format profile : Advanced Simple@L5
Format settings, BVOP : 2
Format settings, QPel : No
Format settings, GMC : No warppoints
Format settings, Matrix : Custom
Codec ID : XVID
Codec ID/Hint : XviD
Duration : 2h 27mn
Bit rate : 1 275 Kbps
Width : 704 pixels
Height : 384 pixels
Display aspect ratio : 1.85:1
Frame rate : 23.976 fps
Color space : YUV
Chroma subsampling : 4:2:0
Bit depth : 8 bits
Scan type : Progressive
Compression mode : Lossy
Bits/(Pixel*Frame) : 0.197
Stream size : 1.32 GiB (90%)
Writing library : XviD 73
Audio
ID : 1
Format : MPEG Audio
Format version : Version 1
Format profile : Layer 3
Codec ID : 55
Codec ID/Hint : MP3
Duration : 2h 27mn
Bit rate mode : Constant
Bit rate : 128 Kbps
Channel(s) : 2 channels
Sampling rate : 48.0 KHz
Compression mode : Lossy
Stream size : 135 MiB (9%)
Alignment : Aligned on interleaves
Interleave, duration : 42 ms (1.00 video frame)
Interleave, preload duratio : 504 ms
Writing library : LAME3.99r
Encoding settings : -m s -V 4 -q 0 -lowpass 17 -b 128
[Profile]  [PM] 
Display posts:    
Reply to topic

Current time is: 25-Sep 04:21

All times are UTC + 2



You cannot post new topics in this forum
You cannot reply to topics in this forum
You cannot edit your posts in this forum
You cannot delete your posts in this forum
You cannot vote in polls in this forum
You cannot attach files in this forum
You cannot download files in this forum