Арк: Ковчег времени / Арка / ARQ (Тони Эллиотт / Tony Elliott) [2016, США, Фантастика, триллер, WEBRip] MVO (NewStudio)

Reply to topic
 
Author
Message

Satyr ®

Gender: Unknown

Longevity: 11 years

Posts: 15401

Reputation: 55 [+] [-]

Satyr · Post 02-Oct-2016 21:50

[Quote] 

Арк: Ковчег времени / ARQ- Год выхода: 2016
Выпущено: США / Lost City, MXN Entertainment , XYZ Films
Жанр: фантастика, триллер
Продолжительность: 01:27:43
Перевод: Профессиональный (многоголосый закадровый) NewStudio
Субтитры: нет-Режиссер:
Тони Эллиотт / Tony Elliott-В ролях:
Робби Амелл (Renton), Рэйчел Тейлор (Hannah), Грэй Пауэлл (Father), Джейкоб Нийем (Brother), Шон Бенсон (Sonny), Адам Батчер (Cuz), Джейми Спильчук (Mobius Common)-О фильме:
Будущее Земли зависит от новой технологии, но на пути к выживании планеты — неожиданный поворот.
Запертые в лаборатории и застрявшие во временной петле, дезориентированные герои пытаются скрыться от захватчиков в масках, одновременно сохранив новый источник энергии, который может спасти человечество.-Релиз групп | | IMDB | КиноПоиск | Сэмпл |-Качество: WEBRip [ARQ 2016 1080p NF WEBRip DD5 1 x264-PiA ]
Формат: AVI
Видео: 720x304 (2.37:1), 23.976 fps, XviD build 67 ~1981 kbps avg, 0.38 bit/pixel
Аудио: 48 kHz, AC3 Dolby Digital, 3/2 (L,C,R,l,r) + LFE ch, ~384 kbps
-

Скриншоты

-

MediaInfo

Общее
Полное имя                               : D:\ARQ_2016_WEBRip_by_Dalemake.avi
Формат                                   : AVI
Формат/Информация                        : Audio Video Interleave
Размер файла                             : 1,46 Гбайт
Продолжительность                        : 1 ч. 27 м.
Общий поток                              : 2375 Кбит/сек
Программа кодирования                    : VirtualDubMod 1.5.10.3 | www.virtualdub-fr.org || (build 2550/release)
Библиотека кодирования                   : VirtualDubMod build 2550/release
Видео
Идентификатор                            : 0
Формат                                   : MPEG-4 Visual
Профиль формата                          : Advanced Simple@L5
Параметр BVOP формата                    : 1
Параметр QPel формата                    : Нет
Параметр GMC формата                     : Без точки перехода
Параметр матрицы формата                 : Выборочная
Идентификатор кодека                     : XVID
Идентификатор кодека/Подсказка           : XviD
Продолжительность                        : 1 ч. 27 м.
Битрейт                                  : 1982 Кбит/сек
Ширина                                   : 720 пикселей
Высота                                   : 304 пикселя
Соотношение сторон                       : 2,35:1
Частота кадров                           : 23,976 кадра/сек
Цветовое пространство                    : YUV
Субдискретизация насыщенности            : 4:2:0
Битовая глубина                          : 8 бит
Тип развёртки                            : Прогрессивная
Метод сжатия                             : С потерями
Бит/(Пиксели*Кадры)                      : 0.378
Размер потока                            : 1,21 Гбайт (83%)
Библиотека кодирования                   : XviD 67
Аудио
Идентификатор                            : 1
Формат                                   : AC-3
Формат/Информация                        : Audio Coding 3
Расширение режима                        : CM (complete main)
Параметр Endianness формата              : Big
Идентификатор кодека                     : 2000
Продолжительность                        : 1 ч. 27 м.
Вид битрейта                             : Постоянный
Битрейт                                  : 384 Кбит/сек
Каналы                                   : 6 каналов
Расположение каналов                     : Front: L C R, Side: L R, LFE
Частота                                  : 48,0 КГц
Битовая глубина                          : 16 бит
Метод сжатия                             : С потерями
Размер потока                            : 241 Мбайт (16%)
Выравнивание                             : Разделение по промежуткам
Продолжительность промежутка             : 42  мс. (1,00 видеокадр)
Время предзагрузки промежутка            : 500  мс.
-
[Profile]  [PM] 
Display posts:    
Reply to topic

Current time is: 25-Sep 05:20

All times are UTC + 2



You cannot post new topics in this forum
You cannot reply to topics in this forum
You cannot edit your posts in this forum
You cannot delete your posts in this forum
You cannot vote in polls in this forum
You cannot attach files in this forum
You cannot download files in this forum