Гонки по-итальянски / Rosso Mille Miglia (Клаудио Уберти / Claudio Uberti) [2015, Италия, Россия, комедия, приключения, мелодрама, детектив, WEB-DLRip] MVO (iTunes)

Reply to topic
 
Author
Message

Satyr ®

Gender: Unknown

Longevity: 11 years

Posts: 15401

Reputation: 55 [+] [-]

Satyr · Post 02-Oct-2016 21:50

[Quote] 

Гонки по-итальянски / Rosso Mille Miglia
Страна: Италия, Россия
Жанр: комедия, приключения, мелодрама, детектив
Год выпуска: 2015
Продолжительность: 01:34:22
Перевод: Профессиональный (многоголосый закадровый) iTunes
Cубтитры: нет
Режиссер: Клаудио Уберти / Claudio Uberti
В ролях: Мартина Стелла, Фабио Тройяно, Ремо Джироне, Франческа Реттондини, Виктория Дзинни, Людмила Бикмуллина, Маурицио Франконе, Паоло Маццетти, Розарио Петикс
Описание: Журналистка Мария приезжает в город Брешиа, чтобы сделать репортаж о ралли ретро-автомобилей «1000 миль». Девушка предлагает знакомому механику Марко принять участие в соревнованиях: он будет водителем, она — штурманом. Марко соглашается, а вот мать героини не слишком рада такому повороту событий. Дело в том, что много лет назад дедушка Марии, участвуя в гонке «1000 миль», попал в аварию, которая разрушила его спортивную карьеру. Готовясь к ралли, Мария начинает выяснять обстоятельства того злополучного происшествия и приходит к выводу, что здесь кроется какая-то тайна…
Доп. информация:
Релиз от группы MegaPeer
Сэмпл
Качество видео: WEB-DLRip
Формат видео: AVI
Видео: 688x288 (2.39:1), 23.976 fps, XviD build 73 ~973 kbps avg, 0.20 bit/pixel
Аудио: 48 kHz, MPEG Layer 3, 2 ch, ~128.00 kbps avg-

MediaInfo

ОбщееПолное имя                               : D:\Rosso.Mille.Miglia.2015.WEB-DLRip.745MB.MegaPeer.aviФормат                                   : AVIФормат/Информация                        : Audio Video InterleaveРазмер файла                             : 747 МбайтПродолжительность                        : 1 ч. 34 м.Общий поток                              : 1107 Кбит/сек
ВидеоИдентификатор : 0Формат : MPEG-4 VisualПрофиль формата : Advanced Simple@L5Параметр BVOP формата : 1Параметр QPel формата : НетПараметр GMC формата : Без точки переходаПараметр матрицы формата : ВыборочнаяИдентификатор кодека : XVIDИдентификатор кодека/Подсказка : XviDПродолжительность : 1 ч. 34 м.Битрейт : 973 Кбит/секШирина : 688 пикселейВысота : 288 пикселейСоотношение сторон : 2,40:1Частота кадров : 23,976 (24000/1001) кадра/секЦветовое пространство : YUVСубдискретизация насыщенности : 4:2:0Битовая глубина : 8 битТип развёртки : ПрогрессивнаяМетод сжатия : С потерямиБит/(Пиксели*Кадры) : 0.205Размер потока : 657 Мбайт (88%)Библиотека кодирования : XviD 73
АудиоИдентификатор : 1Формат : MPEG AudioВерсия формата : Version 1Профиль формата : Layer 3Режим : Joint stereoРасширение режима : MS StereoИдентификатор кодека : 55Идентификатор кодека/Подсказка : MP3Продолжительность : 1 ч. 34 м.Вид битрейта : ПостоянныйБитрейт : 128 Кбит/секКаналы : 2 каналаЧастота : 48,0 КГцМетод сжатия : С потерямиРазмер потока : 86,4 Мбайт (12%)Выравнивание : Соединение по промежуткамПродолжительность промежутка : 167 мс. (4,00 видеокадра)Время предзагрузки промежутка : 216 мс.Заголовок : PБиблиотека кодирования : LAME3.99rНастройки программы : -m j -V 4 -q 2 -lowpass 17 -b 128

Скриншоты

-
[Profile]  [PM] 
Display posts:    
Reply to topic

Current time is: 29-Sep 18:18

All times are UTC + 2



You cannot post new topics in this forum
You cannot reply to topics in this forum
You cannot edit your posts in this forum
You cannot delete your posts in this forum
You cannot vote in polls in this forum
You cannot attach files in this forum
You cannot download files in this forum