Девятая жизнь Луи Дракса / The 9th Life of Louis Drax (Александр Ажа / Alexandre Aja) [2016, Великобритания, Канада, США, триллер, детектив, WEB-DLRip-AVC] Dub

Reply to topic
 
Author
Message

Satyr ®

Gender: Unknown

Longevity: 11 years

Posts: 15401

Reputation: 55 [+] [-]

Satyr · Post 03-Oct-2016 18:15

[Quote] 

Девятая жизнь Луи Дракса / The 9th Life of Louis Drax«A mystery beyond reality»- Страна: Великобритания, Канада, США
Жанр: триллер, детектив
Год выпуска: 2016
Продолжительность: 01:43:25
Перевод: Профессиональный (дублированный) (iTunes)
Оригинальная аудиодорожка: нет
Субтитры: нет
Навигация по главам: есть
Режиссер: Александр Ажа / Alexandre Aja
В ролях: Джейми Дорнан (Dr. Allan Pascal), Эйден Лонгуорт (Louis Drax), Сара Гадон (Natalie), Майкл Адамуэйт (Doctor (C-Section)), Аарон Пол (Peter), Бэкхам Скойе (Louis (Age 2)), Адам Абрамс (Doctor (X-Ray)), Молли Паркер (Dalton), Терри Чен (Elliott), Рэнди Линн (ER Nurse), Джон Хэйнсуорт (ER Patient), Голди Хоффман (ER Nurse)
Описание: Знаменитый психолог Аллан Паскаль пытается раскрыть тайны, которые хранит сознание 9-летнего Луи Дракса, впавшего в кому после таинственного несчастного случая. Влюбленный в мать мальчика доктор подозревает в случившемся отца. Но чем глубже он погружается в подсознание ребенка, тем сильнее размываются границы между мистикой и реальностью...- -Качество: WEB-DLRip-AVC (исходник - The.9th.Life.of.Louis.Drax.2016.1080p.WEB-DL.Rus.HDCLUB)
Формат видео: MKV
Видео: x264, 1088x456 (2.40:1), 25 fps, ~1635 kbps, 0,132 bit/pixel
Аудио: 48 kHz, AC3 Dolby Digital, 5.1 (Front: L C R, Side: L R, LFE) ch, ~ 384 kbps-

MediaInfo | x264 log

Format : Matroska
Format version : Version 4 / Version 2
File size : 1.46 GiB
Duration : 1 h 43 min
Overall bit rate : 2 020 kb/s
Movie name : Девятая жизнь Луи Дракса / The 9th Life of Louis Drax (2016) :: AFM ::
Encoded date : UTC 2016-10-02 14:59:08
Writing application : mkvmerge v8.3.0 ('Over the Horizon') 32bit
Writing library : libebml v1.3.1 + libmatroska v1.4.2
Video
ID : 1
Format : AVC
Format/Info : Advanced Video Codec
Format profile : High@L4.1
Format settings, CABAC : Yes
Format settings, ReFrames : 11 frames
Codec ID : V_MPEG4/ISO/AVC
Duration : 1 h 43 min
Bit rate : 1 635 kb/s
Width : 1 088 pixels
Height : 456 pixels
Display aspect ratio : 2.40:1
Frame rate mode : Constant
Frame rate : 25.000 FPS
Color space : YUV
Chroma subsampling : 4:2:0
Bit depth : 8 bits
Scan type : Progressive
Bits/(Pixel*Frame) : 0.132
Stream size : 1.15 GiB (79%)
Title : WEB_DLRip by AFM
Writing library : x264 core 148 r2705+54 9f484c1 t_mod_Custom [8-bit@all X86_64]
Encoding settings : cabac=1 / ref=11 / deblock=1:-3:-2 / analyse=0x3:0x133 / me=umh / subme=10 / psy=1 / fade_compensate=0.00 / psy_rd=1.00:0.00 / mixed_ref=1 / me_range=32 / chroma_me=1 / trellis=2 / 8x8dct=1 / cqm=0 / deadzone=21,11 / fast_pskip=0 / chroma_qp_offset=-2 / threads=6 / lookahead_threads=1 / sliced_threads=0 / nr=0 / decimate=0 / interlaced=0 / bluray_compat=0 / constrained_intra=0 / fgo=0 / bframes=13 / b_pyramid=2 / b_adapt=2 / b_bias=0 / direct=3 / weightb=1 / open_gop=0 / weightp=2 / keyint=250 / keyint_min=25 / scenecut=40 / intra_refresh=0 / rc_lookahead=40 / rc=2pass / mbtree=0 / bitrate=1635 / ratetol=1.0 / qcomp=0.65 / qpmin=0:0:0 / qpmax=69:69:69 / qpstep=4 / cplxblur=20.0 / qblur=0.5 / vbv_maxrate=50000 / vbv_bufsize=62500 / nal_hrd=none / filler=0 / ip_ratio=1.35 / pb_ratio=1.30 / aq=3:0.80 / aq-sensitivity=10.00 / aq-factor=1.00:1.00:1.00 / aq2=0 / aq3=0
Language : English
Default : Yes
Forced : No
Audio
ID : 2
Format : AC-3
Format/Info : Audio Coding 3
Mode extension : CM (complete main)
Format settings, Endianness : Big
Codec ID : A_AC3
Duration : 1 h 43 min
Bit rate mode : Constant
Bit rate : 384 kb/s
Channel(s) : 6 channels
Channel positions : Front: L C R, Side: L R, LFE
Sampling rate : 48.0 kHz
Frame rate : 31.250 FPS (1536 spf)
Compression mode : Lossy
Stream size : 284 MiB (19%)
Title : Dub, AC3 5.1 ~384 kbps
Language : Russian
Default : Yes
Forced : No
Menu
00:00:00.000 : en:1
00:04:06.920 : en:2
00:11:27.080 : en:3
00:16:20.920 : en:4
00:22:15.280 : en:5
00:28:33.400 : en:6
00:35:36.920 : en:7
00:41:18.720 : en:8
00:46:22.960 : en:9
00:51:16.400 : en:10
00:57:38.880 : en:11
01:04:09.760 : en:12
01:11:06.560 : en:13
01:17:27.120 : en:14
01:22:42.200 : en:15
01:34:15.040 : en:16

x264

x264 [info]: frame I:1286 Avg QP:15.86 size: 61084
x264 [info]: frame P:40456 Avg QP:18.71 size: 17595
x264 [info]: frame B:113403 Avg QP:20.91 size: 4206
x264 [info]: consecutive B-frames: 2.4% 5.1% 5.5% 66.5% 6.6% 10.7% 1.4% 1.1% 0.1% 0.1% 0.1% 0.1% 0.0% 0.3%
x264 [info]: mb I I16..4: 5.2% 75.1% 19.7%
x264 [info]: mb P I16..4: 0.6% 5.9% 0.9% P16..4: 43.1% 24.3% 17.0% 0.6% 0.2% skip: 7.4%
x264 [info]: mb B I16..4: 0.0% 0.4% 0.1% B16..8: 36.4% 9.3% 2.4% direct: 3.6% skip:47.8% L0:38.1% L1:46.8% BI:15.1%
x264 [info]: 8x8 transform intra:77.8% inter:59.1%
x264 [info]: direct mvs spatial:96.8% temporal:3.2%
x264 [info]: coded y,uvDC,uvAC intra: 86.7% 79.9% 53.1% inter: 18.3% 12.2% 5.7%
x264 [info]: i16 v,h,dc,p: 39% 12% 5% 44%
x264 [info]: i8 v,h,dc,ddl,ddr,vr,hd,vl,hu: 19% 10% 6% 7% 11% 12% 11% 11% 12%
x264 [info]: i4 v,h,dc,ddl,ddr,vr,hd,vl,hu: 17% 10% 3% 8% 14% 13% 13% 10% 12%
x264 [info]: i8c dc,h,v,p: 39% 23% 22% 16%
x264 [info]: Weighted P-Frames: Y:2.7% UV:0.8%
x264 [info]: ref P L0: 52.9% 11.3% 16.0% 5.1% 4.3% 2.8% 2.6% 1.3% 1.4% 1.1% 1.1% 0.1% 0.0%
x264 [info]: ref B L0: 79.7% 9.8% 4.0% 2.0% 1.3% 1.1% 0.8% 0.6% 0.4% 0.2%
x264 [info]: ref B L1: 96.2% 3.8%
x264 [info]: kb/s:1633.84

Скриншоты

с названием

[Profile]  [PM] 
Display posts:    
Reply to topic

Current time is: 25-Sep 00:11

All times are UTC + 2



You cannot post new topics in this forum
You cannot reply to topics in this forum
You cannot edit your posts in this forum
You cannot delete your posts in this forum
You cannot vote in polls in this forum
You cannot attach files in this forum
You cannot download files in this forum