Девятая жизнь Луи Дракса / The 9th Life of Louis Drax (Александр Ажа / Alexandre Aja) [2016, Великобритания, Канада, США, Триллер, детектив, WEB-DLRip] Dub (iTunes)

Reply to topic
 
Author
Message

Satyr ®

Gender: Unknown

Longevity: 11 years

Posts: 15401

Reputation: 55 [+] [-]

Satyr · Post 03-Oct-2016 18:15

[Quote] 

Девятая жизнь Луи Дракса / The 9th Life of Louis Drax
Страна: Великобритания, Канада, США
Жанр: Триллер, детектив
Год выпуска: 2016
Продолжительность: 01:43:25
Перевод: Профессиональный (дублированный) iTunes
Cубтитры: нет
Режиссер: Александр Ажа / Alexandre Aja
В ролях: Джейми Дорнан, Эйден Лонгуорт, Сара Гадон, Майкл Адамуэйт, Аарон Пол, Бэкхам Скойе, Адам Абрамс, Молли Паркер, Терри Чен, Рэнди Линн
Описание: Знаменитый психолог Аллан Паскаль пытается раскрыть тайны, которые хранит сознание 9-летнего Луи Дракса, впавшего в кому после таинственного несчастного случая. Влюбленный в мать мальчика доктор подозревает в случившемся отца. Но чем глубже он погружается в подсознание ребенка, тем сильнее размываются границы между мистикой и реальностью…
Релиз от Megapeer (наша группа)
Сэмпл
Качество видео: WEB-DLRip (Исх. The.9th.Life.of.Louis.Drax.2016.1080p.WEB-DL.Rus.HDCLUB)
Формат видео: AVI
Видео: 688x288 (2.39:1), 25 fps, XviD build 73 ~874 kbps avg, 0.20 bit/pixel
Аудио: MP3, 2 ch, 128 kbps, 48 Кгц

MediaInfo

ОбщееПолное имя                               : D:\The.9th.Life.of.Louis.Drax.2016.WEB-DLRip.745MB.MegaPeer.aviФормат                                   : AVIФормат/Информация                        : Audio Video InterleaveРазмер файла                             : 746 МбайтПродолжительность                        : 1 ч. 43 м.Общий поток                              : 1008 Кбит/сек
ВидеоИдентификатор : 0Формат : MPEG-4 VisualПрофиль формата : Advanced Simple@L5Параметр BVOP формата : 1Параметр QPel формата : НетПараметр GMC формата : Без точки переходаПараметр матрицы формата : ВыборочнаяИдентификатор кодека : XVIDИдентификатор кодека/Подсказка : XviDПродолжительность : 1 ч. 43 м.Битрейт : 874 Кбит/секШирина : 688 пикселейВысота : 288 пикселейСоотношение сторон : 2,40:1Частота кадров : 25,000 кадров/секЦветовое пространство : YUVСубдискретизация насыщенности : 4:2:0Битовая глубина : 8 битТип развёртки : ПрогрессивнаяМетод сжатия : С потерямиБит/(Пиксели*Кадры) : 0.176Размер потока : 647 Мбайт (87%)Библиотека кодирования : XviD 73
АудиоИдентификатор : 1Формат : MPEG AudioВерсия формата : Version 1Профиль формата : Layer 3Режим : Joint stereoРасширение режима : MS StereoИдентификатор кодека : 55Идентификатор кодека/Подсказка : MP3Продолжительность : 1 ч. 43 м.Вид битрейта : ПостоянныйБитрейт : 128 Кбит/секКаналы : 2 каналаЧастота : 48,0 КГцМетод сжатия : С потерямиРазмер потока : 94,7 Мбайт (13%)Выравнивание : Соединение по промежуткамПродолжительность промежутка : 160 мс. (4,00 видеокадра)Время предзагрузки промежутка : 216 мс.Заголовок : iTunesБиблиотека кодирования : LAME3.99rНастройки программы : -m j -V 4 -q 2 -lowpass 17 -b 128

Скриншоты

[Profile]  [PM] 
Display posts:    
Reply to topic

Current time is: 24-Sep 04:37

All times are UTC + 2



You cannot post new topics in this forum
You cannot reply to topics in this forum
You cannot edit your posts in this forum
You cannot delete your posts in this forum
You cannot vote in polls in this forum
You cannot attach files in this forum
You cannot download files in this forum