Удалённая местность / Edge of Winter (Роберт Коннолли / Robert Connolly) [2016, Канада, Триллер, драма, WEB-DLRip] MVO (iTunes)

Reply to topic
 
Author
Message

Satyr ®

Gender: Unknown

Longevity: 15 years

Posts: 22031

Reputation: 56 [+] [-]

Satyr · Post 04-Oct-2016 18:50

[Quote] 

Удалённая местность / Edge of Winter- Год выхода: 2016
Выпущено: Канада, США / Independent Edge Films
Жанр: триллер, драма
Продолжительность: 01:28:44
Перевод: Профессиональный (многоголосый закадровый)
Субтитры: нет-Режиссер:
Роберт Коннолли / Robert Connolly-В ролях:
Юэль Киннаман, Том Холланд, Рашель Лефевр, Шайло Фернандес, Россиф Сазерленд, Патрик Гэрроу, Шон Бенсон, Перси Хайнс Уайт-О фильме:
Напряженная драма об одиноком мужчине, которому выпадает возможность сблизиться с двумя сыновьями, когда бывшая жена, уезжая в отпуск, оставляет их под его присмотром. Но вместо семейной идиллии братьев ждет кошмарная ночь в заброшенной хижине, сотрясаемой ударами снежной бури. Подростки многое откроют о своем малознакомом отце и о том, что они значат для него на самом деле.-Релиз групп | | IMDB | КиноПоиск | Сэмпл |-Качество: WEB-DLRip [Edge.of.Winter.2016.1080p.WEB-DL.DD5.1.H264-FGT]
Формат: AVI
Видео: 720x304 (2.37:1), 23.976 fps, XviD build 67 ~1954 kbps avg, 0.37 bit/pixel
Аудио: 48 kHz, AC3 Dolby Digital, 3/2 (L,C,R,l,r) + LFE ch, ~384 kbps - iTunes Russia
-

Скриншоты

-

MediaInfo

Общее
Полное имя                               : D:\Udalennaya_mestnost`_2016_WEB-DLRip_by_Dalemake.avi
Формат                                   : AVI
Формат/Информация                        : Audio Video Interleave
Размер файла                             : 1,46 Гбайт
Продолжительность                        : 1 ч. 28 м.
Общий поток                              : 2348 Кбит/сек
Программа кодирования                    : VirtualDubMod 1.5.10.3 | www.virtualdub-fr.org || (build 2550/release)
Библиотека кодирования                   : VirtualDubMod build 2550/release
Видео
Идентификатор                            : 0
Формат                                   : MPEG-4 Visual
Профиль формата                          : Advanced Simple@L5
Параметр BVOP формата                    : 1
Параметр QPel формата                    : Нет
Параметр GMC формата                     : Без точки перехода
Параметр матрицы формата                 : Выборочная
Идентификатор кодека                     : XVID
Идентификатор кодека/Подсказка           : XviD
Продолжительность                        : 1 ч. 28 м.
Битрейт                                  : 1955 Кбит/сек
Ширина                                   : 720 пикселей
Высота                                   : 304 пикселя
Соотношение сторон                       : 2,35:1
Частота кадров                           : 23,976 кадра/сек
Цветовое пространство                    : YUV
Субдискретизация насыщенности            : 4:2:0
Битовая глубина                          : 8 бит
Тип развёртки                            : Прогрессивная
Метод сжатия                             : С потерями
Бит/(Пиксели*Кадры)                      : 0.372
Размер потока                            : 1,21 Гбайт (83%)
Библиотека кодирования                   : XviD 67
Аудио
Идентификатор                            : 1
Формат                                   : AC-3
Формат/Информация                        : Audio Coding 3
Расширение режима                        : CM (complete main)
Параметр Endianness формата              : Big
Идентификатор кодека                     : 2000
Продолжительность                        : 1 ч. 28 м.
Вид битрейта                             : Постоянный
Битрейт                                  : 384 Кбит/сек
Каналы                                   : 6 каналов
Расположение каналов                     : Front: L C R, Side: L R, LFE
Частота                                  : 48,0 КГц
Битовая глубина                          : 16 бит
Метод сжатия                             : С потерями
Размер потока                            : 244 Мбайт (16%)
Выравнивание                             : Разделение по промежуткам
Продолжительность промежутка             : 42  мс. (1,00 видеокадр)
Время предзагрузки промежутка            : 500  мс.
-
[Profile]  [PM] 
Display posts:    
Reply to topic

Current time is: 19-Jul 05:42

All times are UTC + 2



You cannot post new topics in this forum
You cannot reply to topics in this forum
You cannot edit your posts in this forum
You cannot delete your posts in this forum
You cannot vote in polls in this forum
You cannot attach files in this forum
You cannot download files in this forum