Охота на дикарей / Hunt for the Wilderpeople (Тайка Вайтити / Taika Waititi) [2016, Новая Зеландия, драма, комедия, приключения, BDRip] MVO (GreenРай Studio)

Reply to topic
 
Author
Message

Satyr ®

Gender: Unknown

Longevity: 11 years

Posts: 15401

Reputation: 55 [+] [-]

Satyr · Post 06-Oct-2016 23:55

[Quote] 

Охота на дикарей / Hunt for the Wilderpeople
Страна: Новая Зеландия
Жанр: драма, комедия, приключения
Год выпуска: 2016
Продолжительность: 01:41:17
Перевод: Любительский (многоголосый закадровый) GreenРай Studio
Cубтитры: нет
Режиссер: Тайка Вайтити / Taika Waititi
В ролях: Сэм Нил (Hec), Джулиан Деннисон (Ricky), Рима Те Вьята (Bella), Рэйчел Хаус (Paula), Tioreore Ngatai-Melbourne (Kahu), Оскар Кайтли (Andy), Стэн Уокер (Ron), Майк Миноуг (Joe), Коэн Холлоуэй (Hugh), Риз Дэрби (Psycho Sam), Трой Кинги (TK), Тайка Вайтити (Minister)
Описание: Рикки Бейкер — упитанный городской хулиган. Сотрудница социальной службы Пола отвозит подростка в сельскую местность, где живёт единственная готовая принять его семья — Белла и её нелюдимый муж Хек. Когда Белла умирает и социальная защита собирается забрать Рикки, тот убегает в леса. Гек отправляется за ним. Сумасбродная Пола убеждена, что странный Хек слетел с катушек из-за смерти жены и похитил подростка. Она развязывает общенациональную охоту на мальчика и его «совратителя».
Релиз Группы: exkinoray
Сэмпл: http://multi-up.com/1121450
Качество видео: BDRip | исх. Hunt.for.the.Wilderpeople.2016.1080p.BluRay.REMUX.AVC.DTS-HD.MA.5.1-FGT
Формат видео: AVI
Видео: 720x304 (2.37:1), 24 fps, XviD build 73 ~1616 kbps avg, 0.31 bit/pixel
Аудио: 48 kHz, AC3 Dolby Digital, 3/2 (L,C,R,l,r) + LFE ch, ~448 kbps

MediaInfo

General
Complete name : E:\Zona Downloads\Ohota.na.dikarej.2016.P.BDRip.1.46Gb.avi
Format : AVI
Format/Info : Audio Video Interleave
File size : 1.46 GiB
Duration : 1h 40mn
Overall bit rate : 2 073 Kbps
Movie name : Ohota.na.dikarej.2016.P.BDRip.1.46Gb_ExKinoRay_by_Twi7ter
Director : Twi7ter
Genre : Drama/Comedy/Adventure
Original source form/Name : Movie
Video
ID : 0
Format : MPEG-4 Visual
Format profile : Advanced Simple@L5
Format settings, BVOP : 2
Format settings, QPel : No
Format settings, GMC : No warppoints
Format settings, Matrix : Custom
Codec ID : XVID
Codec ID/Hint : XviD
Duration : 1h 40mn
Bit rate : 1 616 Kbps
Width : 720 pixels
Height : 304 pixels
Display aspect ratio : 2.35:1
Frame rate : 24.000 fps
Color space : YUV
Chroma subsampling : 4:2:0
Bit depth : 8 bits
Scan type : Progressive
Compression mode : Lossy
Bits/(Pixel*Frame) : 0.308
Stream size : 1.14 GiB (78%)
Writing library : XviD 73
Audio
ID : 1
Format : AC-3
Format/Info : Audio Coding 3
Mode extension : CM (complete main)
Format settings, Endianness : Big
Codec ID : 2000
Duration : 1h 40mn
Bit rate mode : Constant
Bit rate : 448 Kbps
Channel(s) : 6 channels
Channel positions : Front: L C R, Side: L R, LFE
Sampling rate : 48.0 KHz
Bit depth : 16 bits
Compression mode : Lossy
Stream size : 324 MiB (22%)
Alignment : Aligned on interleaves
Interleave, duration : 42 ms (1.00 video frame)
Interleave, preload duration : 512 ms

Скриншот c названием фильма

Скриншоты

[Profile]  [PM] 
Display posts:    
Reply to topic

Current time is: 27-Sep 11:24

All times are UTC + 2



You cannot post new topics in this forum
You cannot reply to topics in this forum
You cannot edit your posts in this forum
You cannot delete your posts in this forum
You cannot vote in polls in this forum
You cannot attach files in this forum
You cannot download files in this forum