Операция Валькирия: Рассвет четвертого Рейха / Beyond Valkyrie: Dawn of the 4th Reich (Клаудио Фах / Claudio Fäh) [2016, США, Боевик, военный, история, WEB-DLRip] MVO

Reply to topic
 
Author
Message

Satyr ®

Gender: Unknown

Longevity: 15 years

Posts: 21940

Reputation: 56 [+] [-]

Satyr · Post 11-Oct-2016 18:50

[Quote] 

Операция Валькирия: Рассвет четвертого Рейха / Beyond Valkyrie: Dawn of the 4th Reich
Страна: США
Жанр: Боевик, военный, история
Год выпуска: 2016
Продолжительность: 01:40:34
Перевод: Профессиональный (многоголосый закадровый)
Cубтитры: нет
Режиссер: Клаудио Фах / Claudio Fäh
В ролях: Том Сайзмор, Рутгер Хауэр, Шон Патрик Флэнери, Кип Парду, Стивен Лэнг, Эрик Ладин, Йоханнес Херршманн, Павел Личникофф, Юли Энгельбрехт
Описание: После провала операции Валькирия в дело подключается специальный отряд. Главная его цель — спасти человека, чья политическая деятельность служила противовесом нацизму и Гитлеру в частности. Перед участниками группы стояла еще одна задача — воспрепятствовать бегству нацистских преступников. Для успеха миссии приходится идти на крайние меры.
Сэмпл: http://multi-up.com/1122090
Качество видео: WEB-DLRip (Исходник Beyond.Valkyrie.Dawn.of.the.Fourth.Reich.2016.1080p.WEB-DL.DD5.1.H264.mkv)
Формат видео: AVI
Видео: XviD, 656x352, (1,85:1), 23,976 fps, 900 Кбит/с, 8 бит
Аудио: Русский (MP3, 2 ch, 48,0 KHz, 128 Kbps)

MediaInfo

Общее
Полное имя : F:\Видеофильмы\В и д е о\Операция Валькирия - Рассвет четвертого Рейха (военный история 2016 год).avi
Формат : AVI
Формат/Информация : Audio Video Interleave
Размер файла : 746 Мбайт
Продолжительность : 1 ч. 40 м.
Общий поток : 1037 Кбит/сек
Программа кодирования : VirtualDubMod 1.5.10.3 | www.virtualdub-fr.org || (build 2550/release)
Библиотека кодирования : VirtualDubMod build 2550/release
Видео
Идентификатор : 0
Формат : MPEG-4 Visual
Профиль формата : Advanced Simple@L5
Параметр BVOP формата : 2
Параметр QPel формата : Нет
Параметр GMC формата : Без точки перехода
Параметр матрицы формата : Выборочная
Идентификатор кодека : XVID
Идентификатор кодека/Подсказка : XviD
Продолжительность : 1 ч. 40 м.
Битрейт : 900 Кбит/сек
Ширина : 656 пикселей
Высота : 352 пикселя
Соотношение сторон : 1,85:1
Частота кадров : 23,976 (23976/1000) кадра/сек
Цветовое пространство : YUV
Субдискретизация насыщенности : 4:2:0
Битовая глубина : 8 бит
Тип развёртки : Прогрессивная
Метод сжатия : С потерями
Бит/(Пиксели*Кадры) : 0.163
Размер потока : 647 Мбайт (87%)
Библиотека кодирования : XviD 1.2.1 (UTC 2008-12-04)
Аудио
Идентификатор : 1
Формат : MPEG Audio
Версия формата : Version 1
Профиль формата : Layer 3
Идентификатор кодека : 55
Идентификатор кодека/Подсказка : MP3
Продолжительность : 1 ч. 40 м.
Вид битрейта : Постоянный
Битрейт : 128 Кбит/сек
Каналы : 2 канала
Частота : 48,0 КГц
Метод сжатия : С потерями
Размер потока : 92,1 Мбайт (12%)
Выравнивание : Соединение по промежуткам
Продолжительность промежутка : 42 мс. (1,00 видеокадр)
Время предзагрузки промежутка : 504 мс.
Библиотека кодирования : LAME3.99r
Настройки программы : -m s -V 4 -q 2 -lowpass 17 -b 128

Скриншот c названием фильма

[Profile]  [PM] 
Display posts:    
Reply to topic

Current time is: 19-Jun 11:50

All times are UTC + 2



You cannot post new topics in this forum
You cannot reply to topics in this forum
You cannot edit your posts in this forum
You cannot delete your posts in this forum
You cannot vote in polls in this forum
You cannot attach files in this forum
You cannot download files in this forum