Крутые меры / Bastille Day (Джеймс Уоткинс / James Watkins) [2016, Великобритания, Франция, США, Боевик, драма, BDRip] Dub (iTunes)

Reply to topic
 
Author
Message

Satyr ®

Gender: Unknown

Longevity: 15 years

Posts: 21964

Reputation: 56 [+] [-]

Satyr · Post 11-Oct-2016 18:50

[Quote] 

Крутые меры / Bastille Day
Страна: Великобритания, Франция, США
Студия: Canal+
Жанр: Боевик, драма
Год выпуска: 2016
Продолжительность: 01:31:48
Перевод: Профессиональный (многоголосый закадровый) | iTunes
Cубтитры: Английские в паре мест на иностранную речь (вшитые)
Режиссер: Джеймс Уоткинс / James Watkins
В ролях: Идрис Эльба, Ричард Мэдден, Келли Райлли, Шарлотта Ле Бон, Анатол Юсеф, Хорхе Леон Мартинес, Карл Фаррер, Хосе Гарсия, Александр Купер, Эрик Эбони
Описание: Ловкий карманник Майкл Мэйсон привлекает внимание полиции и спецслужб, когда крадет сумку, содержащую гораздо больше, чем просто бумажник. На его след выходит дерзкий и резкий спецагент ЦРУ Шон Брайар. Вдвоем они становятся мишенью тайной преступной организации и в течение суток должны вывести злоумышленников на чистую воду.

Релиз от группы MegaPeer
Сэмпл
Качество видео: BDRip (Исх. Bastille.Day.2016.D.AVO.BDREMUX.1080p.ExKinoRay)
Формат видео: AVI
Видео: 688x288 (2.39:1), 24 fps, XviD build 73 ~1001 kbps avg, 0.24 bit/pixel
Аудио: MP3, 2 ch, 128 kbps, 48,0 КГц

MediaInfo

Общее
Полное имя : D:\Bastille.Day.2016.BDRip.745MB.D.MegaPeer.avi
Формат : AVI
Формат/Информация : Audio Video Interleave
Размер файла : 745 Мбайт
Продолжительность : 1 ч. 31 м.
Общий поток : 1135 Кбит/сек
Видео
Идентификатор : 0
Формат : MPEG-4 Visual
Профиль формата : Advanced Simple@L5
Параметр BVOP формата : 1
Параметр QPel формата : Нет
Параметр GMC формата : Без точки перехода
Параметр матрицы формата : Выборочная
Идентификатор кодека : XVID
Идентификатор кодека/Подсказка : XviD
Продолжительность : 1 ч. 31 м.
Битрейт : 1001 Кбит/сек
Ширина : 688 пикселей
Высота : 288 пикселей
Соотношение сторон : 2,40:1
Частота кадров : 24,000 кадра/сек
Цветовое пространство : YUV
Субдискретизация насыщенности : 4:2:0
Битовая глубина : 8 бит
Тип развёртки : Прогрессивная
Метод сжатия : С потерями
Бит/(Пиксели*Кадры) : 0.210
Размер потока : 657 Мбайт (88%)
Библиотека кодирования : XviD 73
Аудио
Идентификатор : 1
Формат : MPEG Audio
Версия формата : Version 1
Профиль формата : Layer 3
Режим : Joint stereo
Расширение режима : MS Stereo
Идентификатор кодека : 55
Идентификатор кодека/Подсказка : MP3
Продолжительность : 1 ч. 31 м.
Вид битрейта : Постоянный
Битрейт : 128 Кбит/сек
Каналы : 2 канала
Частота : 48,0 КГц
Метод сжатия : С потерями
Размер потока : 84,1 Мбайт (11%)
Выравнивание : Соединение по промежуткам
Продолжительность промежутка : 167 мс. (4,00 видеокадра)
Время предзагрузки промежутка : 216 мс.
Заголовок : iTunes
Библиотека кодирования : LAME3.99r
Настройки программы : -m j -V 4 -q 2 -lowpass 17 -b 128

Скриншоты

[Profile]  [PM] 
Display posts:    
Reply to topic

Current time is: 24-Jun 17:57

All times are UTC + 2



You cannot post new topics in this forum
You cannot reply to topics in this forum
You cannot edit your posts in this forum
You cannot delete your posts in this forum
You cannot vote in polls in this forum
You cannot attach files in this forum
You cannot download files in this forum