Хороший сосед / The Good Neighbor (Касра Фарахани / Kasra Farahani) [2016, США, триллер, WEBDLRip-AVC] VO (Титов) + Sub Eng + Original Eng

Reply to topic
 
Author
Message

Satyr ®

Gender: Unknown

Longevity: 11 years

Posts: 15401

Reputation: 55 [+] [-]

Satyr · Post 11-Oct-2016 18:50

[Quote] 

Хороший сосед / The Good Neighbor
Страна: США
Жанр: триллер
Год выпуска: 2016
Продолжительность: 01:37:21--Перевод: Одноголосный закадровый / Петр Титов
Cубтитры: английские
Оригинальная аудио дорожка: английская--Режиссер: Касра Фарахани / Kasra Farahani--В ролях: Джеймс Каан, Логан Миллер, Кейр Гилкрист, Лора Иннес, Эдвин Ходж, Энн Дудек, Бэйли Ноубл, Лили Рейнхарт, Минди Стерлинг--Описание: Пара старшеклассников решает заставить своего соседа поверить в то, что в его доме обитают призраки. Однако, их предполагаемая жертва реагирует на происходящее совсем не так, как те ожидали.--Доп. информация: Присутствует навигация по главам--Сэмпл: http://sendfile.su/1272927--Качество видео: WEBDLRip-AVC
Формат видео: MKV
Качество: WEBDLRip-AVC (исходник: The.Good.Neighbor.2016.1080p.WEB-DL.DD5.1.H264-FGT)
Видео: MPEG4/AVC, 1120x464, 2.40:1, 23.976 (24000/1001) FPS, 2508 kb/s
Аудио 1: AC-3, 48.0 kHz, 192 kb/s, 2.0 | любительский
Аудио 2: AC-3, 48.0 kHz, 384 kb/s, 5.1 | оригинал
Формат субтитров: softsub (SRT)

MediaInfo

Формат : Matroska
Версия формата : Version 2
Размер файла : 2,10 Гбайт
Продолжительность : 1 ч. 37 м.
Общий поток : 3082 Кбит/сек
Дата кодирования : UTC 2016-10-09 17:27:48
Программа кодирования : mkvmerge v7.6.0 ('Garden of Dreams') 32bit built on Feb 11 2015 00:18:47
Библиотека кодирования : libebml v1.3.1 + libmatroska v1.4.2
Видео
Идентификатор : 1
Формат : AVC
Формат/Информация : Advanced Video Codec
Профиль формата : High@L4.1
Параметр CABAC формата : Да
Параметр ReFrames формата : 15 кадров
Идентификатор кодека : V_MPEG4/ISO/AVC
Продолжительность : 1 ч. 37 м.
Битрейт : 2508 Кбит/сек
Ширина : 1120 пикселей
Высота : 464 пикселя
Соотношение сторон : 2,40:1
Режим частоты кадров : Постоянный
Частота кадров : 23,976 (24000/1001) кадра/сек
Цветовое пространство : YUV
Субдискретизация насыщенности : 4:2:0
Битовая глубина : 8 бит
Тип развёртки : Прогрессивная
Бит/(Пиксели*Кадры) : 0.201
Размер потока : 1,66 Гбайт (79%)
Библиотека кодирования : x264 core 148 r2638 7599210
Настройки программы : cabac=1 / ref=15 / deblock=1:-3:-3 / analyse=0x3:0x133 / me=umh / subme=9 / psy=1 / psy_rd=1.05:0.10 / mixed_ref=1 / me_range=32 / chroma_me=1 / trellis=2 / 8x8dct=1 / cqm=0 / deadzone=21,11 / fast_pskip=0 / chroma_qp_offset=-3 / threads=6 / lookahead_threads=1 / sliced_threads=0 / nr=0 / decimate=1 / interlaced=0 / bluray_compat=0 / constrained_intra=0 / bframes=9 / b_pyramid=2 / b_adapt=2 / b_bias=0 / direct=3 / weightb=1 / open_gop=0 / weightp=2 / keyint=240 / keyint_min=23 / scenecut=40 / intra_refresh=0 / rc_lookahead=60 / rc=2pass / mbtree=0 / bitrate=2508 / ratetol=1.0 / qcomp=0.60 / qpmin=0 / qpmax=69 / qpstep=4 / cplxblur=20.0 / qblur=0.5 / vbv_maxrate=62500 / vbv_bufsize=78125 / nal_hrd=none / filler=0 / ip_ratio=1.40 / pb_ratio=1.30 / aq=2:0.80
Default : Да
Forced : Нет
Statistics Tags Issue : mkvmerge v8.5.2 ('Crosses') 32bit 2016-10-09 15:44:52 / mkvmerge v7.6.0 ('Garden of Dreams') 32bit built on Feb 11 2015 00:18:47 2016-10-09 17:27:48
FromStats_BitRate : 2504173
FromStats_Duration : 01:37:20.585000000
FromStats_FrameCount : 140034
FromStats_StreamSize : 1828229486
Аудио #1
Идентификатор : 2
Формат : AC-3
Формат/Информация : Audio Coding 3
Расширение режима : CM (complete main)
Параметр Endianness формата : Big
Идентификатор кодека : A_AC3
Продолжительность : 1 ч. 37 м.
Вид битрейта : Постоянный
Битрейт : 192 Кбит/сек
Каналы : 2 канала
Расположение каналов : Front: L R
Частота : 48,0 КГц
Частота кадров : 31,250 кадров/сек (1536 spf)
Метод сжатия : С потерями
Размер потока : 134 Мбайт (6%)
Заголовок : любительский
Язык : Russian
Default : Да
Forced : Нет
Аудио #2
Идентификатор : 3
Формат : AC-3
Формат/Информация : Audio Coding 3
Расширение режима : CM (complete main)
Параметр Endianness формата : Big
Идентификатор кодека : A_AC3
Продолжительность : 1 ч. 37 м.
Вид битрейта : Постоянный
Битрейт : 384 Кбит/сек
Каналы : 6 каналов
Расположение каналов : Front: L C R, Side: L R, LFE
Частота : 48,0 КГц
Частота кадров : 31,250 кадров/сек (1536 spf)
Метод сжатия : С потерями
Размер потока : 267 Мбайт (12%)
Заголовок : оригинал
Язык : English
Default : Нет
Forced : Нет
Текст
Идентификатор : 4
Формат : UTF-8
Идентификатор кодека : S_TEXT/UTF8
Идентификатор кодека/Информация : UTF-8 Plain Text
Заголовок : английские
Язык : English
Default : Нет
Forced : Нет
Меню
00:00:00.000 : en:Opening Sequence
00:06:04.000 : en:The Installation
00:12:23.000 : en:Are You Ready?
00:17:46.000 : en:A New Visitor
00:24:56.000 : en:Knock Knock
00:31:41.000 : en:Moonlight Sonata
00:35:53.000 : en:Something Mysterious
00:42:34.000 : en:He's Saying Something
00:48:44.000 : en:An Interesting Development
00:56:03.000 : en:The Basement
01:02:50.000 : en:Halloween
01:06:58.000 : en:In This Together
01:12:26.000 : en:Don't Go Down There
01:19:17.000 : en:What Have We Done?
01:25:56.000 : en:The Verdict
01:31:54.000 : en:End Credits

Скриншот c названием фильма

Скриншоты

Релиз:
[Profile]  [PM] 
Display posts:    
Reply to topic

Current time is: 22-Jan 13:34

All times are UTC + 2



You cannot post new topics in this forum
You cannot reply to topics in this forum
You cannot edit your posts in this forum
You cannot delete your posts in this forum
You cannot vote in polls in this forum
You cannot attach files in this forum
You cannot download files in this forum