Отряд самоубийц / Suicide Squad (Дэвид Эйр / David Ayer) [2016, США, Фантастика, Боевик, Комедия, Криминал, WEBRip-AVC] VO (Solod)

Reply to topic
 
Author
Message

Satyr ®

Gender: Unknown

Longevity: 11 years

Posts: 15401

Reputation: 55 [+] [-]

Satyr · Post 11-Oct-2016 18:50

[Quote] 

Отряд самоубийц / Suicide Squad
Страна: США
Жанр: Фантастика, Боевик, Комедия, Криминал
Год выпуска: 2016
Продолжительность: 02:02:47
Перевод: Одноголосый закадровый - Solod
Cубтитры: корейские (неотключаемые), русские, английские (форсированные)
Оригинальная аудиодорожка: нет
Режиссер: Дэвид Эйр / David Ayer
В ролях: Марго Робби (Harley Quinn), Уилл Смит (Deadshot), Джаред Лето (The Joker), Джай Кортни (Captain Boomerang), Кара Делевинь (June Moone / Enchantress), Джей Эрнандес (Diablo), Юэль Киннаман (Rick Flag), Виола Дэвис (Amanda Waller), Адевале Акинойе-Агбаже (Killer Croc), Скотт Иствуд (Lieutenant GQ Edwards), Дэвид Харбор (Dexter Tolliver), Коммон (Monster T), Эзра Миллер (The Flash)
Описание: Правительство решает дать команде суперзлодеев шанс на искупление. Подвох в том, что их отправляют на миссию, где они, вероятнее всего, погибнут.
Сэмпл
Качество видео: WEBRip-AVC
Формат видео: MKV
Видео: AVC/H.264, 1024x428, 1400 kbps, 23.976 fps, 0.133 Bits/(Pixel*Frame)
Аудио: AC3, 2 ch, 256 kbps, CBR, 48.0 kHz

MediaInfo

Общее
Уникальный идентификатор : 12654891967553826210303516418326526916 (0x9853E5887299047500E085C8B21FBC4)
Полное имя : D:\suicide.squad.2016.1024.solod.rus.2.0.mkv
Формат : Matroska
Версия формата : Version 4 / Version 2
Размер файла : 1,42 Гбайт
Продолжительность : 2 ч. 2 м.
Общий поток : 1658 Кбит/сек
Название фильма : Suicide Squad 2016 | Solod
Дата выпуска : 2016
Дата кодирования : UTC 2016-10-08 12:49:16 / UTC 2016-10-08T04:13:00Z
Программа кодирования : mkvmerge v9.4.2 ('So High') 64bit
Библиотека кодирования : libebml v1.3.4 + libmatroska v1.4.5 / Lavf55.12.0
Видео
Идентификатор : 1
Формат : AVC
Формат/Информация : Advanced Video Codec
Профиль формата : High@L4
Параметр CABAC формата : Да
Параметр ReFrames формата : 10 кадров
Идентификатор кодека : V_MPEG4/ISO/AVC
Продолжительность : 2 ч. 2 м.
Битрейт : 1400 Кбит/сек
Ширина : 1024 пикселя
Высота : 428 пикселей
Соотношение сторон : 2,40:1
Режим частоты кадров : Постоянный
Частота кадров : 23,976 (24000/1001) кадра/сек
Цветовое пространство : YUV
Субдискретизация насыщенности : 4:2:0
Битовая глубина : 8 бит
Тип развёртки : Прогрессивная
Бит/(Пиксели*Кадры) : 0.133
Размер потока : 1,17 Гбайт (83%)
Библиотека кодирования : x264 core 148
Настройки программы : cabac=1 / ref=10 / deblock=1:-2:-2 / analyse=0x3:0x113 / me=umh / subme=11 / psy=1 / psy_rd=1,15:0,20 / mixed_ref=1 / me_range=24 / chroma_me=1 / trellis=2 / 8x8dct=1 / cqm=0 / deadzone=21,11 / fast_pskip=1 / chroma_qp_offset=-3 / threads=6 / lookahead_threads=1 / sliced_threads=0 / nr=0 / decimate=1 / interlaced=0 / bluray_compat=0 / constrained_intra=0 / bframes=11 / b_pyramid=2 / b_adapt=1 / b_bias=0 / direct=1 / weightb=1 / open_gop=0 / weightp=2 / keyint=240 / keyint_min=24 / scenecut=40 / intra_refresh=0 / rc_lookahead=40 / rc=2pass / mbtree=1 / bitrate=1400 / ratetol=1,0 / qcomp=0,60 / qpmin=0 / qpmax=69 / qpstep=4 / cplxblur=20,0 / qblur=0,5 / vbv_maxrate=62500 / vbv_bufsize=78125 / nal_hrd=none / filler=0 / ip_ratio=1,40 / aq=1:1,00
Default : Да
Forced : Нет
Цветовой диапазон : Limited
Основные цвета : BT.709
Характеристики трансфера : BT.709
Коэффициенты матрицы : BT.709
Statistics Tags Issue : mkvmerge v9.4.2 ('So High') 64bit 2016-10-08 12:49:16 / mkvmerge v9.4.2 ('So High') 64bit 2016-10-08 12:49:16 / UTC 2016-10-08T04:13:00Z
FromStats_BitRate : 1400000
FromStats_Duration : 02:02:47.319000000
FromStats_FrameCount : 176639
FromStats_StreamSize : 1289281009
Аудио
Идентификатор : 2
Формат : AC-3
Формат/Информация : Audio Coding 3
Расширение режима : CM (complete main)
Параметр Endianness формата : Big
Идентификатор кодека : A_AC3
Продолжительность : 2 ч. 2 м.
Вид битрейта : Постоянный
Битрейт : 256 Кбит/сек
Каналы : 2 канала
Расположение каналов : Front: L R
Частота : 48,0 КГц
Частота кадров : 31,250 кадров/сек (1536 spf)
Метод сжатия : С потерями
Задержка видео : -83 мс.
Размер потока : 225 Мбайт (15%)
Заголовок : vo solod
Язык : Russian
Default : Да
Forced : Нет
Statistics Tags Issue : mkvmerge v9.4.2 ('So High') 64bit 2016-10-08 12:49:16 / mkvmerge v9.4.2 ('So High') 64bit 2016-10-08 12:49:16 / UTC 2016-10-08T04:13:00Z
FromStats_BitRate : 256000
FromStats_Duration : 02:02:47.328000000
FromStats_FrameCount : 230229
FromStats_StreamSize : 235754496
Текст #1
Идентификатор : 3
Формат : UTF-8
Идентификатор кодека : S_TEXT/UTF8
Идентификатор кодека/Информация : UTF-8 Plain Text
Заголовок : rus fulll
Язык : Russian
Default : Нет
Forced : Нет
Statistics Tags Issue : mkvmerge v9.4.2 ('So High') 64bit 2016-10-08 12:49:16 / mkvmerge v9.4.2 ('So High') 64bit 2016-10-08 12:49:16 / UTC 2016-10-08T04:13:00Z
FromStats_BitRate : 75
FromStats_Duration : 01:53:28.460000000
FromStats_FrameCount : 1427
FromStats_StreamSize : 64670
Текст #2
Идентификатор : 4
Формат : UTF-8
Идентификатор кодека : S_TEXT/UTF8
Идентификатор кодека/Информация : UTF-8 Plain Text
Заголовок : eng full
Язык : English
Default : Нет
Forced : Нет
Statistics Tags Issue : mkvmerge v9.4.2 ('So High') 64bit 2016-10-08 12:49:16 / mkvmerge v9.4.2 ('So High') 64bit 2016-10-08 12:49:16 / UTC 2016-10-08T04:13:00Z
FromStats_BitRate : 41
FromStats_Duration : 01:53:22.560000000
FromStats_FrameCount : 1427
FromStats_StreamSize : 35583

Скриншоты

[Profile]  [PM] 
Display posts:    
Reply to topic

Current time is: 25-Sep 04:40

All times are UTC + 2



You cannot post new topics in this forum
You cannot reply to topics in this forum
You cannot edit your posts in this forum
You cannot delete your posts in this forum
You cannot vote in polls in this forum
You cannot attach files in this forum
You cannot download files in this forum