Белоснежка и Охотник 2 / The Huntsman: Winter\'s War (Седрик Николя-Троян / Cedric Nicolas-Troyan) [2016, США, фэнтези, боевик, драма, приключения, HDRip-AVC] [Extended Cut] Dub + Sub Rus, Eng

Reply to topic
 
Author
Message

Satyr ®

Gender: Unknown

Longevity: 11 years

Posts: 15401

Reputation: 55 [+] [-]

Satyr · Post 11-Oct-2016 18:50

[Quote] 

Белоснежка и Охотник 2 / The Huntsman: Winter's War
Extended Cut
- Год выпуска: 2016
Страна: США / Universal Pictures
Жанр: фэнтези, боевик, драма, приключения
Продолжительность: 02:00:10
Перевод: Профессиональный (дублированный)
Cубтитры: русские, английские-Режиссер: Седрик Николя-Троян / Cedric Nicolas-Troyan-В ролях: Крис Хемсворт, Шарлиз Терон, Джессика Честейн, Эмили Блант, Ник Фрост, Роб Брайдон, Шеридан Смит, Александра Роуч, Сопе Дирису, Сэм Хэзелдайн, Сэм Клафлин, Софи Куксон, Конрад Кхан, Ниам Уолтер, Нана Аджйеман-Бедьяко, Амелия Крауч, Фред Татаскьор, Ралф Айнесон, Линн Уилмот, Колин Морган.-Описание: Злая колдунья Равенна уничтожена. На трон королевства Табор восходит Белоснежка, неся в сказочный мир добро, радость и низкие налоги. Но сестра Равенны, ледяная королева Фрейя, готовит рабочий план по досрочному наступлению нового ледникового периода с помощью волшебного зеркала и своей армии специально обученных воинов, не ведающих человеческих слабостей. Ей противостоят бесстрашный охотник Эрик и его возлюбленная Сара.-Автор рипа: Sergei91 (student05)-Качество видео: HDRip-AVC (Исходник BDRip 1080p)
Формат видео: MKV | Sample
Видео: 768x320 (2.40:1), 23.976 fps, x264@L4.1 ~795 kbps avg, 0.14 bit/pixel
Аудио: 48/24 kHz, AAC-HE, (L,R) 3, 2 ch, ~72.00 kbps avg | Дубляж BD EUR
Субтитры: русские полные, английские полные

Инфо

Формат : Matroska
Версия формата : Version 4 / Version 2
Размер файла : 747 Мбайт
Продолжительность : 2 ч. 0 м.
Общий поток : 869 Кбит/сек
Название фильма : Белоснежка и Охотник 2 / The Huntsman Winter's War 2016
Дата кодирования : UTC 2016-10-05 18:19:19
Программа кодирования : mkvmerge v9.3.1 ('Mask Machine') 32bit
Библиотека кодирования : libebml v1.3.4 + libmatroska v1.4.5
Видео
Идентификатор : 1
Формат : AVC
Формат/Информация : Advanced Video Codec
Профиль формата : High@L4.1
Параметр CABAC формата : Да
Параметр ReFrames формата : 12 кадров
Идентификатор кодека : V_MPEG4/ISO/AVC
Продолжительность : 2 ч. 0 м.
Битрейт : 795 Кбит/сек
Ширина : 768 пикселей
Высота : 320 пикселей
Соотношение сторон : 2,40:1
Режим частоты кадров : Постоянный
Частота кадров : 23,976 (24000/1001) кадра/сек
Частота кадров в оригинале : 23,976 (23976/1000) кадра/сек
Цветовое пространство : YUV
Субдискретизация насыщенности : 4:2:0
Битовая глубина : 8 бит
Тип развёртки : Прогрессивная
Бит/(Пиксели*Кадры) : 0.135
Размер потока : 683 Мбайт (91%)
Заголовок : HDRip-AVC
Библиотека кодирования : x264 core 146 r2538 121396c
Настройки программы : cabac=1 / ref=12 / deblock=1:-2:-2 / analyse=0x3:0x113 / me=umh / subme=10 / psy=1 / psy_rd=1.00:0.15 / mixed_ref=1 / me_range=32 / chroma_me=1 / trellis=2 / 8x8dct=1 / cqm=0 / deadzone=21,11 / fast_pskip=1 / chroma_qp_offset=-3 / threads=2 / lookahead_threads=1 / sliced_threads=0 / nr=0 / decimate=0 / interlaced=0 / bluray_compat=0 / constrained_intra=0 / bframes=11 / b_pyramid=2 / b_adapt=2 / b_bias=0 / direct=3 / weightb=1 / open_gop=0 / weightp=2 / keyint=240 / keyint_min=23 / scenecut=40 / intra_refresh=0 / rc_lookahead=40 / rc=2pass / mbtree=0 / bitrate=795 / ratetol=1.0 / qcomp=0.60 / qpmin=0 / qpmax=69 / qpstep=4 / cplxblur=20.0 / qblur=0.5 / vbv_maxrate=14000 / vbv_bufsize=14000 / nal_hrd=none / filler=0 / ip_ratio=1.40 / pb_ratio=1.30 / aq=1:1.00
Язык : English
Default : Да
Forced : Нет
Аудио
Идентификатор : 2
Формат : AAC
Формат/Информация : Advanced Audio Codec
Профиль формата : HE-AAC / LC
Идентификатор кодека : A_AAC
Продолжительность : 2 ч. 0 м.
Битрейт : 72,0 Кбит/сек
Каналы : 2 канала
Расположение каналов : Front: L R
Частота : 48,0 КГц / 24,0 КГц
Частота кадров : 23,438 кадра/сек (1024 spf)
Метод сжатия : С потерями
Размер потока : 61,9 Мбайт (8%)
Заголовок : Дубляж
Язык : Russian
Default : Да
Forced : Нет
Текст #1
Идентификатор : 3
Формат : UTF-8
Идентификатор кодека : S_TEXT/UTF8
Идентификатор кодека/Информация : UTF-8 Plain Text
Продолжительность : 1 ч. 59 м.
Битрейт : 57 бит/сек
Count of elements : 1100
Размер потока : 50,0 Кбайт (0%)
Заголовок : Full
Язык : Russian
Default : Нет
Forced : Нет
Текст #2
Идентификатор : 4
Формат : UTF-8
Идентификатор кодека : S_TEXT/UTF8
Идентификатор кодека/Информация : UTF-8 Plain Text
Продолжительность : 1 ч. 50 м.
Битрейт : 36 бит/сек
Count of elements : 1139
Размер потока : 29,1 Кбайт (0%)
Заголовок : Full
Язык : English
Default : Нет
Forced : Нет
Меню
00:00:00.000 : en:Chapter 01
00:03:33.338 : en:Chapter 02
00:08:00.688 : en:Chapter 03
00:10:28.628 : en:Chapter 04
00:13:58.045 : en:Chapter 05
00:17:02.021 : en:Chapter 06
00:20:16.089 : en:Chapter 07
00:22:11.330 : en:Chapter 08
00:26:37.887 : en:Chapter 09
00:30:32.038 : en:Chapter 10
00:34:29.776 : en:Chapter 11
00:36:00.992 : en:Chapter 12
00:38:18.087 : en:Chapter 13
00:40:37.101 : en:Chapter 14
00:45:53.792 : en:Chapter 15
00:48:53.847 : en:Chapter 16
00:51:58.156 : en:Chapter 17
00:54:43.113 : en:Chapter 18
00:57:51.426 : en:Chapter 19
01:00:48.186 : en:Chapter 20
01:03:26.594 : en:Chapter 21
01:07:09.567 : en:Chapter 22
01:09:43.596 : en:Chapter 23
01:13:11.470 : en:Chapter 24
01:15:31.860 : en:Chapter 25
01:17:27.726 : en:Chapter 26
01:19:30.098 : en:Chapter 27
01:24:50.710 : en:Chapter 28
01:26:58.254 : en:Chapter 29
01:31:04.250 : en:Chapter 30
01:34:03.679 : en:Chapter 31
01:37:33.180 : en:Chapter 32
01:41:54.817 : en:Chapter 33
01:44:52.995 : en:Chapter 34
01:47:19.808 : en:Chapter 35
01:51:29.766 : en:Chapter 36
01:56:42.745 : en:Chapter 37
02:00:05.413 : en:Chapter 38

Скриншоты

[Profile]  [PM] 
Display posts:    
Reply to topic

Current time is: 18-Sep 15:15

All times are UTC + 2



You cannot post new topics in this forum
You cannot reply to topics in this forum
You cannot edit your posts in this forum
You cannot delete your posts in this forum
You cannot vote in polls in this forum
You cannot attach files in this forum
You cannot download files in this forum