И гаснет свет... / Lights Out (Дэвид Ф. Сандберг / David F. Sandberg) [2016, США, Ужасы, триллер, BDRip] Dub (iTunes) + Sub Rus

Reply to topic
 
Author
Message

Satyr ®

Gender: Unknown

Longevity: 11 years

Posts: 15401

Reputation: 55 [+] [-]

Satyr · Post 17-Oct-2016 21:50

[Quote] 

И гаснет свет... / Lights Out
Страна: США
Жанр: Ужасы, триллер
Год выпуска: 2016
Продолжительность: 01:20:57
Перевод: Профессиональный (дублированный) iTunes
Cубтитры: Русские форсированные (отдельно, srt)
Режиссер: Дэвид Ф. Сандберг / David F. Sandberg
В ролях: Тереза Палмер, Гэбриел Бейтман, Александр ДиПерсиа, Билли Бёрк, Мария Белло, Алисия Вела-Бэйли, Энди Ошо, Роландо Бойс, Мария Расселл, Элизабет Пан
Описание: Когда Ребекка покинула родной дом, она думала, что её детские страхи остались позади. Ребенком она никогда не была уверена, что реально, а что нет, когда гас свет, и теперь её младший брат Мартин переживает те же необъяснимые и ужасные события, которые когда-то испытывали на прочность её рассудок и угрожали её безопасности. Пугающее нечто, таинственным образом привязанное к их матери Софи, появилось вновь. Но на этот раз Ребекка подбирается к разгадке истины, и уже не остается сомнений в том, что их жизни в опасности, как только будет погашен свет.

Релиз от группы MegaPeer
Сэмпл
Качество видео: BDRip / Исх. LIGHTS_OUT_REMUX_HDCLUB
Формат видео: AVI
Видео: 720x304 (2.37:1), 23.976 fps, XviD build 73 ~2121 kbps avg, 0.40 bit/pixel
Аудио: 48 kHz, AC3 Dolby Digital, 3/2 (L,C,R,l,r) + LFE ch, ~384 kbps-

MediaInfo

ОбщееПолное имя                               : D:\Lights.Out.2016.BDRip.1.42Gb.MegaPeer\Lights.Out.2016.BDRip.1.42Gb.MegaPeer.aviФормат                                   : AVIФормат/Информация                        : Audio Video InterleaveРазмер файла                             : 1,42 ГбайтПродолжительность                        : 1 ч. 20 м.Общий поток                              : 2513 Кбит/сек
ВидеоИдентификатор : 0Формат : MPEG-4 VisualПрофиль формата : Advanced Simple@L5Параметр BVOP формата : 1Параметр QPel формата : НетПараметр GMC формата : Без точки переходаПараметр матрицы формата : ВыборочнаяИдентификатор кодека : XVIDИдентификатор кодека/Подсказка : XviDПродолжительность : 1 ч. 20 м.Битрейт : 2122 Кбит/секШирина : 720 пикселейВысота : 304 пикселяСоотношение сторон : 2,35:1Частота кадров : 23,976 (24000/1001) кадра/секЦветовое пространство : YUVСубдискретизация насыщенности : 4:2:0Битовая глубина : 8 битТип развёртки : ПрогрессивнаяМетод сжатия : С потерямиБит/(Пиксели*Кадры) : 0.404Размер потока : 1,20 Гбайт (84%)Библиотека кодирования : XviD 73
АудиоИдентификатор : 1Формат : AC-3Формат/Информация : Audio Coding 3Расширение режима : CM (complete main)Параметр Endianness формата : BigИдентификатор кодека : 2000Продолжительность : 1 ч. 20 м.Вид битрейта : ПостоянныйБитрейт : 384 Кбит/секКаналы : 6 каналовРасположение каналов : Front: L C R, Side: L R, LFEЧастота : 48,0 КГцЧастота кадров : 31,250 кадров/сек (1536 spf)Метод сжатия : С потерямиРазмер потока : 222 Мбайт (15%)Выравнивание : Соединение по промежуткамПродолжительность промежутка : 64 мс. (1,53 видеокадра)Время предзагрузки промежутка : 192 мс.Заголовок : iTunes

Скриншоты

-
[Profile]  [PM] 
Display posts:    
Reply to topic

Current time is: 26-Sep 10:41

All times are UTC + 2



You cannot post new topics in this forum
You cannot reply to topics in this forum
You cannot edit your posts in this forum
You cannot delete your posts in this forum
You cannot vote in polls in this forum
You cannot attach files in this forum
You cannot download files in this forum