Поп-звезда: Не переставай, не останавливайся / Popstar: never stop never stopping (Акива Шаффер / Akiva Schaffer, Йорма Такконе / Jorma Taccone) [2016, США, комедия, мюзикл, драма, BDRip] Dub

Reply to topic
 
Author
Message

Satyr ®

Gender: Unknown

Longevity: 11 years

Posts: 15401

Reputation: 55 [+] [-]

Satyr · Post 17-Oct-2016 21:50

[Quote] 

Поп-звезда: Не переставай, не останавливайся / Popstar: never stop never stopping
Страна: США
Жанр: комедия, мюзикл, драма
Год выпуска: 2016
Продолжительность: 01:26:30
Перевод: Профессиональный (дублированный)
Cубтитры: нет
Оригинальная аудиодорожка: нет-Режиссер: Акива Шаффер / Akiva Schaffer, Йорма Такконе / Jorma Taccone-В ролях: Энди Сэмберг, Йорма Такконе, Акива Шаффер, Сара Силверман, Тим Медоуз, Майя Рудольф, Джоан Кьюсак, Имоджен Путс, Крис Редд, Эдгар Блэкмон-Описание: С самого детства Коннер был без ума от музыки. Ещё ребёнком он с двумя лучшими друзьями создал группу «The Style Boyz». Группа стала очень популярной, и Коннор зазвездился, решив, что успех группы - исключительно его заслуга. Один друг детства вовсе перестал с ним разговаривать, другой работает у Коннера диджеем. А лучшие друзья суперзвезды - его менеджер, организатор вечеринок и прочие непонятные личности, которым бы только тусоваться с утра до ночи.
И вот приближается великий день - выход нового сольного альбома. Но, как известно, чем выше ты взлетел, тем больнее будет падать.- -Качество видео: BDRip | Popstar: Never Stop Never Stopping (2016) 1080p BD-Remux HDClub
Формат видео: AVI
Видео: 688x288 (2.39:1), 23.976 fps, XviD build 73 ~1064 kbps avg, 0.22 bit/pixel
Аудио: 48 kHz, MPEG Layer 3, 2 ch, ~128.00 kbps avg-Скачать сэмпл-

MediaInfo

Формат                                   : AVI
Формат/Информация                        : Audio Video Interleave
Размер файла                             : 744 Мбайт
Продолжительность                        : 1 ч. 26 м.
Общий поток                              : 1202 Кбит/сек
Программа кодирования                    : VirtualDubMod 1.5.10.3 | www.virtualdub-fr.org || (build 2550/release)
Библиотека кодирования                   : VirtualDubMod build 2550/release
Видео
Идентификатор                            : 0
Формат                                   : MPEG-4 Visual
Профиль формата                          : Advanced Simple@L5
Параметр BVOP формата                    : 1
Параметр QPel формата                    : Нет
Параметр GMC формата                     : Без точки перехода
Параметр матрицы формата                 : Выборочная
Идентификатор кодека                     : XVID
Идентификатор кодека/Подсказка           : XviD
Продолжительность                        : 1 ч. 26 м.
Битрейт                                  : 1065 Кбит/сек
Ширина                                   : 688 пикселей
Высота                                   : 288 пикселей
Соотношение сторон                       : 2,40:1
Частота кадров                           : 23,976 (23976/1000) кадра/сек
Цветовое пространство                    : YUV
Субдискретизация насыщенности            : 4:2:0
Битовая глубина                          : 8 бит
Тип развёртки                            : Прогрессивная
Метод сжатия                             : С потерями
Бит/(Пиксели*Кадры)                      : 0.224
Размер потока                            : 659 Мбайт (89%)
Библиотека кодирования                   : XviD 73
Аудио
Идентификатор                            : 1
Формат                                   : MPEG Audio
Версия формата                           : Version 1
Профиль формата                          : Layer 3
Идентификатор кодека                     : 55
Идентификатор кодека/Подсказка           : MP3
Продолжительность                        : 1 ч. 26 м.
Вид битрейта                             : Постоянный
Битрейт                                  : 128 Кбит/сек
Каналы                                   : 2 канала
Частота                                  : 48,0 КГц
Метод сжатия                             : С потерями
Размер потока                            : 79,2 Мбайт (11%)
Выравнивание                             : Соединение по промежуткам
Продолжительность промежутка             : 42  мс. (1,00 видеокадр)
Время предзагрузки промежутка            : 504  мс.
Библиотека кодирования                   : LAME3.99r
Настройки программы                      : -m s -V 4 -q 2 -lowpass 17 -b 128

Скриншоты

[Profile]  [PM] 
Display posts:    
Reply to topic

Current time is: 19-Sep 11:12

All times are UTC + 2



You cannot post new topics in this forum
You cannot reply to topics in this forum
You cannot edit your posts in this forum
You cannot delete your posts in this forum
You cannot vote in polls in this forum
You cannot attach files in this forum
You cannot download files in this forum