Молодость по страховке / Wild Oats (Энди Теннант / Andy Tennant) [2016, США, Боевик, драма, комедия, приключения, WEB-DLRip] Dub (iTunes)

Reply to topic
 
Author
Message

Satyr ®

Gender: Unknown

Longevity: 11 years

Posts: 15401

Reputation: 55 [+] [-]

Satyr · Post 18-Oct-2016 10:10

[Quote] 

Молодость по страховке / Wild Oats
Страна: США
Жанр: Боевик, драма, комедия, приключения
Год выпуска: 2016
Продолжительность: 01:27:39
Перевод: Профессиональный (дублированный) iTunes
Cубтитры: нет
Оригинальная аудиодорожка: нет-Режиссер: Энди Теннант / Andy Tennant-В ролях: Джессика Лэнг, Деми Мур, Ширли МакЛейн, Билли Коннолли, Джадд Хёрш, Мэтт Уолш, Ребекка Да Коста, Ховард Хессеман, Стефани Бичем, Джей Хейден-Описание: Главная героиня картины, недавно овдовевшая школьная учительница - пенсионерка, которой судьба неожиданно подкинула золотую жилу. От своей страховой компании она получает чек, случайно выписанный на 5 миллионов долларов. К положенной выплате в 50 тысяч долларов по ошибке приписали несколько нулей. Вместе с лучшей подругой они решают, что к своему почтенному возрасту могут позволить себе наплевать на все правила и хоть раз пожить ради себя. Оставив прежнюю жизнь и взрослую дочь, Ева отправляется с подругой в роскошное путешествие на испанский остров Гран - Канария. В одночасье беглянки становятся звездами американских СМИ, преследуемые страховым агентом, который должен разобраться в этом грандиозном финансовом недоразумении....- -Качество видео: WEB-DLRip | Wild Oats (2016) WEB-DL [H.264/1080p]
Формат видео: AVI
Видео: 688x288 (2.39:1), 25 fps, XviD build 73 ~1048 kbps avg, 0.21 bit/pixel
Аудио: 48 kHz, MPEG Layer 3, 2 ch, ~128.00 kbps avg-Скачать сэмпл | КиноПоиск-

MediaInfo

Формат                                   : AVI
Формат/Информация                        : Audio Video Interleave
Размер файла                             : 744 Мбайт
Продолжительность                        : 1 ч. 27 м.
Общий поток                              : 1187 Кбит/сек
Программа кодирования                    : VirtualDubMod 1.5.10.3 | www.virtualdub-fr.org || (build 2550/release)
Библиотека кодирования                   : VirtualDubMod build 2550/release
Видео
Идентификатор                            : 0
Формат                                   : MPEG-4 Visual
Профиль формата                          : Advanced Simple@L5
Параметр BVOP формата                    : 1
Параметр QPel формата                    : Нет
Параметр GMC формата                     : Без точки перехода
Параметр матрицы формата                 : Выборочная
Идентификатор кодека                     : XVID
Идентификатор кодека/Подсказка           : XviD
Продолжительность                        : 1 ч. 27 м.
Битрейт                                  : 1049 Кбит/сек
Ширина                                   : 688 пикселей
Высота                                   : 288 пикселей
Соотношение сторон                       : 2,40:1
Частота кадров                           : 25,000 кадров/сек
Цветовое пространство                    : YUV
Субдискретизация насыщенности            : 4:2:0
Битовая глубина                          : 8 бит
Тип развёртки                            : Прогрессивная
Метод сжатия                             : С потерями
Бит/(Пиксели*Кадры)                      : 0.212
Размер потока                            : 658 Мбайт (88%)
Библиотека кодирования                   : XviD 73
Аудио
Идентификатор                            : 1
Формат                                   : MPEG Audio
Версия формата                           : Version 1
Профиль формата                          : Layer 3
Идентификатор кодека                     : 55
Идентификатор кодека/Подсказка           : MP3
Продолжительность                        : 1 ч. 27 м.
Вид битрейта                             : Постоянный
Битрейт                                  : 128 Кбит/сек
Каналы                                   : 2 канала
Частота                                  : 48,0 КГц
Метод сжатия                             : С потерями
Размер потока                            : 80,3 Мбайт (11%)
Выравнивание                             : Соединение по промежуткам
Продолжительность промежутка             : 40  мс. (1,00 видеокадр)
Время предзагрузки промежутка            : 504  мс.
Библиотека кодирования                   : LAME3.99r
Настройки программы                      : -m s -V 4 -q 2 -lowpass 17 -b 128

Скриншоты

[Profile]  [PM] 
Display posts:    
Reply to topic

Current time is: 21-Sep 05:23

All times are UTC + 2



You cannot post new topics in this forum
You cannot reply to topics in this forum
You cannot edit your posts in this forum
You cannot delete your posts in this forum
You cannot vote in polls in this forum
You cannot attach files in this forum
You cannot download files in this forum