Молодость по страховке / Wild Oats (Энди Теннант / Andy Tennant) [2016, США, Боевик, драма, комедия, приключения, WEB-DLRip] Dub (iTunes)

Reply to topic
 
Author
Message

Satyr ®

Online

Gender: Unknown

Longevity: 11 years

Posts: 15401

Reputation: 55 [+] [-]

Satyr · Post 18-Oct-2016 10:10

[Quote] 

Молодость по страховке / Wild Oats
Страна: США
Жанр: Боевик, драма, комедия, приключения
Год выпуска: 2016
Продолжительность: 01:27:39
Перевод: Профессиональный (дублированный) iTunes
Cубтитры: нет
Режиссер: Энди Теннант / Andy Tennant
В ролях: Ширли МакЛейн, Джессика Лэнг, Деми Мур, Билли Коннолли, Джадд Хирш, Мэтт Уолш, Ребекка Да Коста, Говард Хессеман, Стефани Бичем, Джей Хейден, Сантьяго Сегура, Айлин Грабба, Марни Карпентер
Описание: Главная героиня картины, недавно овдовевшая школьная учительница - пенсионерка, которой судьба неожиданно подкинула золотую жилу. От своей страховой компании она получает чек, случайно выписанный на 5 миллионов долларов. К положенной выплате в 50 тысяч долларов по ошибке приписали несколько нулей. Вместе с лучшей подругой они решают, что к своему почтенному возрасту могут позволить себе наплевать на все правила и хоть раз пожить ради себя. Оставив прежнюю жизнь и взрослую дочь, Ева отправляется с подругой в роскошное путешествие на испанский остров Гран - Канария. В одночасье беглянки становятся звездами американских СМИ, преследуемые страховым агентом, который должен разобраться в этом грандиозном финансовом недоразумении....
Рейтинг фильма : -- IMDB / 6,1
Сэмпл: http://multi-up.com/1123214
Качество видео: WEB-DLRip (Исходник Molodost.po.CtraxoBke.2016.D.WEB-DL.1080p.mkv)
Формат видео: AVI
Видео: XviD, 720x304, (2,35:1), 25,000 fps, 1837 Кбит/с
Аудио: Русский (АС3, 6 ch (Front: L C R, Side: L R, LFE), 48,0 KHz, 384 Kbps)

MediaInfo

Общее
Полное имя : F:\Видеофильмы\В и д е о\Молодость по страховке (боевик, драма, комедия, приключения 2016г).avi
Формат : AVI
Формат/Информация : Audio Video Interleave
Размер файла : 1,37 Гбайт
Продолжительность : 1 ч. 27 м.
Общий поток : 2231 Кбит/сек
Программа кодирования : VirtualDubMod 1.5.10.3 | www.virtualdub-fr.org || (build 2550/release)
Библиотека кодирования : VirtualDubMod build 2550/release
Видео
Идентификатор : 0
Формат : MPEG-4 Visual
Профиль формата : Advanced Simple@L5
Параметр BVOP формата : 2
Параметр QPel формата : Нет
Параметр GMC формата : Без точки перехода
Параметр матрицы формата : Выборочная
Идентификатор кодека : XVID
Идентификатор кодека/Подсказка : XviD
Продолжительность : 1 ч. 27 м.
Битрейт : 1837 Кбит/сек
Ширина : 720 пикселей
Высота : 304 пикселя
Соотношение сторон : 2,35:1
Частота кадров : 25,000 кадров/сек
Цветовое пространство : YUV
Субдискретизация насыщенности : 4:2:0
Битовая глубина : 8 бит
Тип развёртки : Прогрессивная
Метод сжатия : С потерями
Бит/(Пиксели*Кадры) : 0.336
Размер потока : 1,12 Гбайт (82%)
Библиотека кодирования : XviD 1.2.1 (UTC 2008-12-04)
Аудио
Идентификатор : 1
Формат : AC-3
Формат/Информация : Audio Coding 3
Расширение режима : CM (complete main)
Параметр Endianness формата : Big
Идентификатор кодека : 2000
Продолжительность : 1 ч. 27 м.
Вид битрейта : Постоянный
Битрейт : 384 Кбит/сек
Каналы : 6 каналов
Расположение каналов : Front: L C R, Side: L R, LFE
Частота : 48,0 КГц
Частота кадров : 31,250 кадров/сек (1536 spf)
Метод сжатия : С потерями
Размер потока : 241 Мбайт (17%)
Выравнивание : Разделение по промежуткам
Продолжительность промежутка : 40 мс. (1,00 видеокадр)
Время предзагрузки промежутка : 500 мс.

Скриншот c названием фильма

[Profile]  [PM] 
Display posts:    
Reply to topic

Current time is: 20-Sep 23:12

All times are UTC + 2



You cannot post new topics in this forum
You cannot reply to topics in this forum
You cannot edit your posts in this forum
You cannot delete your posts in this forum
You cannot vote in polls in this forum
You cannot attach files in this forum
You cannot download files in this forum