Мохенджо Даро / Mohenjo Daro (Ашутош Говарикер / Ashutosh Gowariker) [2016, Индия, Приключения, история, драма, WEB-DLRip] MVO

Reply to topic
 
Author
Message

Satyr ®

Gender: Unknown

Longevity: 11 years

Posts: 15401

Reputation: 55 [+] [-]

Satyr · Post 18-Oct-2016 10:10

[Quote] 

Мохенджо Даро / Mohenjo Daro
Страна: Индия
Жанр: Драма
Год выпуска: 2016
Продолжительность: 02:48:22-Перевод: Любительский (многоголосый закадровый) - Денис Строев, Михаил Цареградский, Давид Петросян, Маргарита Сахно
Субтитры: Нет-Режиссер: Ашутош Говарикер / Ashutosh Gowariker-В ролях: Ритик Рошан, Кабир Беди, Арунодай Сингх, Пуджа Хегде, Кишори Шахан, Сухасини Мулай, Нитиш Бхарадвадж-Описание: 2016 год до н.э. В центре сюжета - история любви простого деревенского парня Сармана и городской красавицы Чани, разворачивающейся на фоне развития древней цивилизации долины Инда...
| -Качество видео: WEB-DLRip
Формат видео: AVI-Видео: 720x304 (2.37:1), 25 fps, XviD build 50 ~1704 kbps avg, 0.31 bit/pixel
Аудио: 48 kHz, MPEG Layer 3, 2 ch, ~160.00 kbps-Релиз от: и
Озвучка: Денис Строев, Михаил Цареградский, Давид Петросян, Маргарита Сахно
Перевод и редакция: ❖ Honey&Haseena ❖
Рип: soso4eg-Фильм переведён и озвучен по специальному заказу Fatima Valverde для группы Индийское кино - Болливуд и Юг-Сэмпл / Sample- -
-

Скриншот с названием

Скриншоты


-

MI

General
Complete name : H:\[Релизы]\Mohenjo.Daro.2016.L.WEB-DLRip.XviD.BwTorrents.avi
Format : AVI
Format/Info : Audio Video Interleave
Format profile : OpenDML
File size : 2.20 GiB
Duration : 2h 48mn
Overall bit rate : 1 872 Kbps
Writing application : VirtualDubMod 1.5.10.2 (build 2540/release)
Video
ID : 0
Format : MPEG-4 Visual
Format profile : Advanced Simple@L5
Format settings, BVOP : 1
Format settings, QPel : No
Format settings, GMC : No warppoints
Format settings, Matrix : Default (H.263)
Codec ID : XVID
Codec ID/Hint : XviD
Duration : 2h 48mn
Bit rate : 1 699 Kbps
Width : 720 pixels
Height : 304 pixels
Display aspect ratio : 2.35:1
Frame rate : 25.000 fps
Color space : YUV
Chroma subsampling : 4:2:0
Bit depth : 8 bits
Scan type : Progressive
Compression mode : Lossy
Bits/(Pixel*Frame) : 0.311
Stream size : 2.00 GiB (91%)
Writing library : XviD 1.2.1 (UTC 2008-12-04)
Audio
ID : 1
Format : MPEG Audio
Format version : Version 1
Format profile : Layer 3
Mode : Joint stereo
Codec ID : 55
Codec ID/Hint : MP3
Duration : 2h 48mn
Bit rate mode : Constant
Bit rate : 160 Kbps
Channel(s) : 2 channels
Sampling rate : 48.0 KHz
Compression mode : Lossy
Stream size : 193 MiB (9%)
Alignment : Aligned on interleaves
Interleave, duration : 40 ms (1.00 video frame)
Interleave, preload duratio : 504 ms
Writing library : LAME3.90.3
-
[Profile]  [PM] 
Display posts:    
Reply to topic

Current time is: 20-Sep 18:12

All times are UTC + 2



You cannot post new topics in this forum
You cannot reply to topics in this forum
You cannot edit your posts in this forum
You cannot delete your posts in this forum
You cannot vote in polls in this forum
You cannot attach files in this forum
You cannot download files in this forum