Воспитатель / Обожжённые колени / La Tutora / Burnt Knees / The Tutor (Иван Ноэль / Iván Noel) [2017, Аргентина, Фэнтези, драма, детектив, WEB-DLRip] Original (Esp) + Subs (Rus, Eng)

Reply to topic
 
Author
Message

Satyr ®

Gender: Unknown

Longevity: 15 years

Posts: 22045

Reputation: 56 [+] [-]

Satyr · Post 18-Oct-2016 10:10

[Quote] 

Воспитатель / Обожжённые колени / La Tutora / Burnt Knees / The Tutor- Год выпуска: 2017
Выпущено: Аргентина / Noel Films
Жанр: фэнтези, драма, детектив
Продолжительность: 01:54:27
Перевод: Оригинал
Субтитры: Русские (полные - Евгений Венгеровский), Английские (полные) (.srt*)
Оригинальная аудиодорожка: Испанская-Режиссер:
Иван Ноэль / Iván Noel-В ролях:
Валентино Винко, Ромина Пинто, Кристина Мареска, Малена Алонсо, Хулио Мендес-О фильме:
Мона получает свою первую работу гувернантки для двух детей-сирот, проживающих в старом заброшенном доме в деревне. Фанатичное стремление перевоспитания этих почти одичавших детей переходит в навязчивую идею и не позволяет женщине заметить, что у подопечных на неё имеются другие планы...-Релиз групп | | IMDB | КиноПоиск | Сэмпл |-Качество: WEB-DLRip [La.Tutora_2017.WEB-DL]
Формат: AVI
Видео: 720x304 (2.37:1), 23.976 fps, XviD build 67 ~1591 kbps avg, 0.30 bit/pixel
Аудио: 48 kHz, AC3 Dolby Digital, 2/0 (L,R) ch, ~224 kbps avg
-

Скриншоты

-

MediaInfo

Общее
Полное имя                               : D:\Vospitatel`_2017_WEB-DLRip_by_Dalemake.avi
Формат                                   : AVI
Формат/Информация                        : Audio Video Interleave
Размер файла                             : 1,46 Гбайт
Продолжительность                        : 1 ч. 54 м.
Общий поток                              : 1825 Кбит/сек
Программа кодирования                    : VirtualDubMod 1.5.10.3 | www.virtualdub-fr.org || (build 2550/release)
Библиотека кодирования                   : VirtualDubMod build 2550/release
Видео
Идентификатор                            : 0
Формат                                   : MPEG-4 Visual
Профиль формата                          : Advanced Simple@L5
Параметр BVOP формата                    : 1
Параметр QPel формата                    : Нет
Параметр GMC формата                     : Без точки перехода
Параметр матрицы формата                 : Выборочная
Идентификатор кодека                     : XVID
Идентификатор кодека/Подсказка           : XviD
Продолжительность                        : 1 ч. 54 м.
Битрейт                                  : 1592 Кбит/сек
Ширина                                   : 720 пикселей
Высота                                   : 304 пикселя
Соотношение сторон                       : 2,35:1
Частота кадров                           : 23,976 кадра/сек
Цветовое пространство                    : YUV
Субдискретизация насыщенности            : 4:2:0
Битовая глубина                          : 8 бит
Тип развёртки                            : Прогрессивная
Метод сжатия                             : С потерями
Бит/(Пиксели*Кадры)                      : 0.303
Размер потока                            : 1,27 Гбайт (87%)
Библиотека кодирования                   : XviD 67
Аудио
Идентификатор                            : 1
Формат                                   : AC-3
Формат/Информация                        : Audio Coding 3
Расширение режима                        : CM (complete main)
Параметр Endianness формата              : Big
Идентификатор кодека                     : 2000
Продолжительность                        : 1 ч. 54 м.
Вид битрейта                             : Постоянный
Битрейт                                  : 224 Кбит/сек
Каналы                                   : 2 канала
Расположение каналов                     : Front: L R
Частота                                  : 48,0 КГц
Битовая глубина                          : 16 бит
Метод сжатия                             : С потерями
Размер потока                            : 183 Мбайт (12%)
Выравнивание                             : Разделение по промежуткам
Продолжительность промежутка             : 42  мс. (1,00 видеокадр)
Время предзагрузки промежутка            : 500  мс.

Пример субтитров

11
00:00:50,916 --> 00:00:52,750
Вы любите детей?
12
00:00:53,334 --> 00:00:56,458
Да, конечно.
Я упомянула это в своём резюме.
13
00:00:56,667 --> 00:01:00,167
У меня высшее образование
в области детской психологии
14
00:01:00,292 --> 00:01:04,125
и специализация преподавателя.
Я училась с американкой Деборой Фореман.
15
00:01:04,334 --> 00:01:08,334
Это вроде как изучать
какие-нибудь вирусы, но не жить с ними.
16
00:01:09,209 --> 00:01:13,000
Давайте посмотрим... Есть ли у вас
какой-нибудь опыт работы с детьми?
17
00:01:13,916 --> 00:01:17,417
Ну, я замещала воспитателя в детском саду...
18
00:01:19,500 --> 00:01:22,417
На самом деле, это будет моей первой работой.
19
00:01:24,833 --> 00:01:30,542
Ладно. Это не так уж важно.
Человек учится на работе.
20
00:01:32,334 --> 00:01:35,750
Я надеюсь, вы не возражаете жить
в таком отдалённом месте?
21
00:01:36,000 --> 00:01:39,958
Хотя особняк старый,
он имеет большой парк и красивый бассейн.
22
00:01:40,250 --> 00:01:44,084
Вокруг луга, река, лес...
-
[Profile]  [PM] 
Display posts:    
Reply to topic

Current time is: 25-Jul 05:02

All times are UTC + 2



You cannot post new topics in this forum
You cannot reply to topics in this forum
You cannot edit your posts in this forum
You cannot delete your posts in this forum
You cannot vote in polls in this forum
You cannot attach files in this forum
You cannot download files in this forum