Стартрек: Бесконечность / Star Trek Beyond (Джастин Лин / Justin Lin) [2016, США, Фантастика, боевик, триллер, приключения, WEB-DLRip] Dub (iTunes) + Sub Rus

Reply to topic
 
Author
Message

Satyr ®

Gender: Unknown

Longevity: 11 years

Posts: 15401

Reputation: 55 [+] [-]

Satyr · Post 18-Oct-2016 22:30

[Quote] 

Стартрек: Бесконечность / Star Trek Beyond
Страна: США
Жанр: Фантастика, боевик, триллер, приключения
Год выпуска: 2016
Продолжительность: 02:02:21
Перевод: Профессиональный (дублированный) iTunes
Cубтитры: Русские форсированные (отдельно)
Режиссер: Джастин Лин / Justin Lin
В ролях: Крис Пайн, Закари Куинто, Саймон Пегг, Карл Урбан, Зои Салдана, Джон Чо, Антон Ельчин, Идрис Эльба, София Бутелла, Джо Таслим
Описание: Через два года после начала очередной космической миссии команда «Энтерпрайза» сталкивается с испытанием, перед которым меркнут все предыдущие приключения отважного экипажа. После атаки неопознанных врагов корабль терпит бедствие на таинственной, затерянной в глубинах пространства планете. Оказавшись на краю Вселенной, лишенные помощи Федерации, капитан Кирк и его товарищи узнают о существовании чудовищного оружия, угрожающего обитаемым планетным системам.
Сэмпл
Качество видео: WEB-DLRip
Формат видео: AVI
Видео: 688x288 (2.39:1), 23.976 fps, XviD build 73 ~718 kbps avg, 0.15 bit/pixel
Аудио: 48 kHz, MPEG Layer 3, 2 ch, ~128.00 kbps avg

MediaInfo

ОбщееПолное имя                               : D:\Star.Trek.Beyond.2016.WEB-DLRip.745MB.MegaPeer\Star.Trek.Beyond.2016.WEB-DLRip.745MB.MegaPeer.aviФормат                                   : AVIФормат/Информация                        : Audio Video InterleaveРазмер файла                             : 746 МбайтПродолжительность                        : 2 ч. 2 м.Общий поток                              : 852 Кбит/сек
ВидеоИдентификатор : 0Формат : MPEG-4 VisualПрофиль формата : Advanced Simple@L5Параметр BVOP формата : 1Параметр QPel формата : НетПараметр GMC формата : Без точки переходаПараметр матрицы формата : ВыборочнаяИдентификатор кодека : XVIDИдентификатор кодека/Подсказка : XviDПродолжительность : 2 ч. 2 м.Битрейт : 719 Кбит/секШирина : 688 пикселейВысота : 288 пикселейСоотношение сторон : 2,40:1Частота кадров : 23,976 (24000/1001) кадра/секЦветовое пространство : YUVСубдискретизация насыщенности : 4:2:0Битовая глубина : 8 битТип развёртки : ПрогрессивнаяМетод сжатия : С потерямиБит/(Пиксели*Кадры) : 0.151Размер потока : 629 Мбайт (84%)Библиотека кодирования : XviD 73
АудиоИдентификатор : 1Формат : MPEG AudioВерсия формата : Version 1Профиль формата : Layer 3Режим : Joint stereoРасширение режима : MS StereoИдентификатор кодека : 55Идентификатор кодека/Подсказка : MP3Продолжительность : 2 ч. 2 м.Вид битрейта : ПостоянныйБитрейт : 128 Кбит/секКаналы : 2 каналаЧастота : 48,0 КГцМетод сжатия : С потерямиРазмер потока : 112 Мбайт (15%)Выравнивание : Соединение по промежуткамПродолжительность промежутка : 167 мс. (4,00 видеокадра)Время предзагрузки промежутка : 216 мс.Заголовок : iTunesБиблиотека кодирования : LAME3.99rНастройки программы : -m j -V 4 -q 2 -lowpass 17 -b 128

Скриншоты

[Profile]  [PM] 
Display posts:    
Reply to topic

Current time is: 21-Sep 04:21

All times are UTC + 2



You cannot post new topics in this forum
You cannot reply to topics in this forum
You cannot edit your posts in this forum
You cannot delete your posts in this forum
You cannot vote in polls in this forum
You cannot attach files in this forum
You cannot download files in this forum