Искусственный интеллект. Доступ неограничен / I.T. (Джон Мур / John Moore) [2016, Ирландия, Франция, Дания, триллер, драма, криминал, детектив, WEBDLRip-AVC] Dub (iTunes) + Sub Eng + Original Eng

Reply to topic
 
Author
Message

Satyr ®

Gender: Unknown

Longevity: 11 years

Posts: 15401

Reputation: 55 [+] [-]

Satyr · Post 23-Oct-2016 01:10

[Quote] 

Искусственный интеллект. Доступ неограничен / I.T.
Страна: Ирландия, Франция, Дания
Жанр: триллер, драма, криминал, детектив
Год выпуска: 2016
Продолжительность: 01:35:36--Перевод: Профессиональный (дублированный) iTunes
Cубтитры: английские
Оригинальная аудиодорожка: английский--]Режиссер: Джон Мур / John Moore--В ролях: Пирс Броснан, Джейсон Бэрри, Карен Москоу, Кай Риссдал, Брайн Малвей, Мартин Хайнди, Рико Хисон, Анна Фрил, Стефани Скотт, Майкл Лысак...--Описание: Вся жизнь Майка Ригана и его семьи построена на последних достижениях искусственного интеллекта и высоких технологий, а его «умный» дом — настоящее произведение технического искусства. Когда Майк пытается прекратить зашедшие слишком далеко отношения своего IT-специалиста Эда с юной дочерью, жизнь Ригана и его семьи оказываются под угрозой. Они попадают в ловушку созданных Риганом «умных технологий», которыми теперь управляет безумный гений Эд, вовлекая Ригана в опасную и непредсказуемую игру.--Доп. информация: Присутствует навигация по главам.--Сэмпл: http://sendfile.su/1276634--Качество видео: WEBDLRip-AVC
Качество: WEB-DLRip (исходник: Intellekt.I.T..2016.D.WEB-DL.1O8Op)
Формат видео: MKV
Видео: MPEG4/AVC, 1152x480, 2.40:1, 23.976 (24000/1001) FPS, 2613 kb/s
Аудио 1: AC-3, 48.0 kHz, 384 kb/s, 5.1 | дубляж
Аудио 2: AC-3, 48.0 kHz, 384 kb/s, 5.1 | оригинал
Формат субтитров: softsub (SRT)

MediaInfo

Формат : Matroska
Версия формата : Version 2
Размер файла : 2,30 Гбайт
Продолжительность : 1 ч. 35 м.
Общий поток : 3450 Кбит/сек
Дата кодирования : UTC 2016-10-22 12:30:34
Программа кодирования : mkvmerge v7.6.0 ('Garden of Dreams') 32bit built on Feb 11 2015 00:18:47
Библиотека кодирования : libebml v1.3.1 + libmatroska v1.4.2
Видео
Идентификатор : 1
Формат : AVC
Формат/Информация : Advanced Video Codec
Профиль формата : High@L4.1
Параметр CABAC формата : Да
Параметр ReFrames формата : 15 кадров
Идентификатор кодека : V_MPEG4/ISO/AVC
Продолжительность : 1 ч. 35 м.
Битрейт : 2613 Кбит/сек
Ширина : 1152 пикселя
Высота : 480 пикселей
Соотношение сторон : 2,40:1
Режим частоты кадров : Постоянный
Частота кадров : 23,976 (24000/1001) кадра/сек
Цветовое пространство : YUV
Субдискретизация насыщенности : 4:2:0
Битовая глубина : 8 бит
Тип развёртки : Прогрессивная
Бит/(Пиксели*Кадры) : 0.197
Размер потока : 1,75 Гбайт (76%)
Библиотека кодирования : x264 core 148 r2638 7599210
Настройки программы : cabac=1 / ref=15 / deblock=1:-3:-3 / analyse=0x3:0x133 / me=umh / subme=9 / psy=1 / psy_rd=1.10:0.05 / mixed_ref=1 / me_range=32 / chroma_me=1 / trellis=2 / 8x8dct=1 / cqm=0 / deadzone=21,11 / fast_pskip=1 / chroma_qp_offset=-3 / threads=6 / lookahead_threads=1 / sliced_threads=0 / nr=0 / decimate=0 / interlaced=0 / bluray_compat=0 / constrained_intra=0 / bframes=8 / b_pyramid=2 / b_adapt=2 / b_bias=0 / direct=1 / weightb=1 / open_gop=0 / weightp=2 / keyint=240 / keyint_min=23 / scenecut=40 / intra_refresh=0 / rc_lookahead=50 / rc=crf / mbtree=0 / crf=17.2 / qcomp=0.70 / qpmin=0 / qpmax=69 / qpstep=4 / vbv_maxrate=62500 / vbv_bufsize=78125 / crf_max=0.0 / nal_hrd=none / filler=0 / ip_ratio=1.40 / pb_ratio=1.30 / aq=2:0.90
Default : Да
Forced : Нет
Цветовой диапазон : Limited
Основные цвета : BT.709
Характеристики трансфера : BT.709
Коэффициенты матрицы : BT.709
Statistics Tags Issue : mkvmerge v8.5.2 ('Crosses') 32bit 2016-10-21 15:05:40 / mkvmerge v7.6.0 ('Garden of Dreams') 32bit built on Feb 11 2015 00:18:47 2016-10-22 12:30:34
FromStats_BitRate : 2681094
FromStats_Duration : 01:35:36.439000000
FromStats_FrameCount : 137537
FromStats_StreamSize : 1922491866
Аудио #1
Идентификатор : 2
Формат : AC-3
Формат/Информация : Audio Coding 3
Расширение режима : CM (complete main)
Параметр Endianness формата : Big
Идентификатор кодека : A_AC3
Продолжительность : 1 ч. 35 м.
Вид битрейта : Постоянный
Битрейт : 384 Кбит/сек
Каналы : 6 каналов
Расположение каналов : Front: L C R, Side: L R, LFE
Частота : 48,0 КГц
Частота кадров : 31,250 кадров/сек (1536 spf)
Метод сжатия : С потерями
Размер потока : 263 Мбайт (11%)
Заголовок : дубляж
Язык : Russian
Default : Да
Forced : Нет
Аудио #2
Идентификатор : 3
Формат : AC-3
Формат/Информация : Audio Coding 3
Расширение режима : CM (complete main)
Параметр Endianness формата : Big
Идентификатор кодека : A_AC3
Продолжительность : 1 ч. 35 м.
Вид битрейта : Постоянный
Битрейт : 384 Кбит/сек
Каналы : 6 каналов
Расположение каналов : Front: L C R, Side: L R, LFE
Частота : 48,0 КГц
Частота кадров : 31,250 кадров/сек (1536 spf)
Метод сжатия : С потерями
Размер потока : 263 Мбайт (11%)
Заголовок : оригинал
Язык : English
Default : Нет
Forced : Нет
Текст
Идентификатор : 4
Формат : UTF-8
Идентификатор кодека : S_TEXT/UTF8
Идентификатор кодека/Информация : UTF-8 Plain Text
Заголовок : английские
Язык : English
Default : Нет
Forced : Нет
Меню
00:00:00.000 : en:1
00:09:51.758 : en:2
00:20:06.956 : en:3
00:29:40.654 : en:4
00:41:51.718 : en:5
00:52:15.133 : en:6
01:00:52.066 : en:7
01:14:15.911 : en:8
01:22:18.685 : en:9
01:31:58.931 : en:10

Скриншот c названием фильма

Скриншоты

[Profile]  [PM] 
Display posts:    
Reply to topic

Current time is: 26-Sep 11:18

All times are UTC + 2



You cannot post new topics in this forum
You cannot reply to topics in this forum
You cannot edit your posts in this forum
You cannot delete your posts in this forum
You cannot vote in polls in this forum
You cannot attach files in this forum
You cannot download files in this forum