Механик: Воскрешение / Mechanic: Resurrection (Дэннис Ганзель / Dennis Gansel) [2016, США, Боевик, триллер, криминал, WEBRip] VO (Solod) + Original (Eng)

Reply to topic
 
Author
Message

Satyr ®

Gender: Unknown

Longevity: 11 years

Posts: 15401

Reputation: 55 [+] [-]

Satyr · Post 27-Oct-2016 07:55

[Quote] 

Механик: Воскрешение / Mechanic: Resurrection- Год выхода: 2016
Выпущено: Франция, США / Chartoff-Winkler Productions
Жанр: боевик, триллер, криминал
Продолжительность: 01:37:48
Перевод: Одноголосый закадровый Solod
Субтитры: Корейские (вшитые)
Оригинальная аудиодорожка: Английская-Режиссер:
Дэннис Ганзель / Dennis Gansel-В ролях:
Джейсон Стэйтем, Джессика Альба, Томми Ли Джонс, Мишель Йео, Наталия Гуслистая, Ейяинг Рхатха Пхонгам, Сэм Хэзелдайн, Джон Ченатьемпо, Райчо Василев, Аарон Брамфилд-О фильме:
Артура Бишопа, давно оставившего свое криминальное ремесло, вынуждают снова вступить в игру. Чтобы похитители вернули его возлюбленную, он должен сделать то, что у него получается лучше всего: от него требуется совершить три убийства, идеально обставленных как несчастные случаи.-Релиз групп | | IMDB | КиноПоиск | Сэмпл | Рекламы нет!-Качество: WEBRip [Mechanic.Resurrection.2016.1080p.HDRip.KORSUB.x264.AAC2.0-STUTTERSHIT]
Формат: AVI
Видео: 720x304 (2.37:1), 24.000 fps, XviD build 67 ~1738 kbps avg, 0.33 bit/pixel
Аудио #1: 48 kHz, AC3 Dolby Digital, 2/0 (L,R) ch, ~192 kbps avg (RUS)
Аудио #2: 48 kHz, AC3 Dolby Digital, 2/0 (L,R) ch, ~192 kbps avg (ENG)-

Скриншоты

-

MediaInfo

Общее
Полное имя                               : D:\Mechanic_Resurrection_2016_WEBRip_by_Dalemake.avi
Формат                                   : AVI
Формат/Информация                        : Audio Video Interleave
Размер файла                             : 1,46 Гбайт
Продолжительность                        : 1 ч. 37 м.
Общий поток                              : 2137 Кбит/сек
Программа кодирования                    : VirtualDubMod 1.5.10.3 | www.virtualdub-fr.org || (build 2550/release)
Библиотека кодирования                   : VirtualDubMod build 2550/release
Видео
Идентификатор                            : 0
Формат                                   : MPEG-4 Visual
Профиль формата                          : Advanced Simple@L5
Параметр BVOP формата                    : 1
Параметр QPel формата                    : Нет
Параметр GMC формата                     : Без точки перехода
Параметр матрицы формата                 : Выборочная
Идентификатор кодека                     : XVID
Идентификатор кодека/Подсказка           : XviD
Продолжительность                        : 1 ч. 37 м.
Битрейт                                  : 1739 Кбит/сек
Ширина                                   : 720 пикселей
Высота                                   : 304 пикселя
Соотношение сторон                       : 2,35:1
Частота кадров                           : 24,000 кадра/сек
Цветовое пространство                    : YUV
Субдискретизация насыщенности            : 4:2:0
Битовая глубина                          : 8 бит
Тип развёртки                            : Прогрессивная
Метод сжатия                             : С потерями
Бит/(Пиксели*Кадры)                      : 0.331
Размер потока                            : 1,19 Гбайт (81%)
Библиотека кодирования                   : XviD 67
Аудио #1
Идентификатор                            : 1
Формат                                   : AC-3
Формат/Информация                        : Audio Coding 3
Расширение режима                        : CM (complete main)
Параметр Endianness формата              : Big
Идентификатор кодека                     : 2000
Продолжительность                        : 1 ч. 37 м.
Вид битрейта                             : Постоянный
Битрейт                                  : 192 Кбит/сек
Каналы                                   : 2 канала
Расположение каналов                     : Front: L R
Частота                                  : 48,0 КГц
Битовая глубина                          : 16 бит
Метод сжатия                             : С потерями
Размер потока                            : 134 Мбайт (9%)
Выравнивание                             : Разделение по промежуткам
Продолжительность промежутка             : 42  мс. (1,00 видеокадр)
Время предзагрузки промежутка            : 500  мс.
Аудио #2
Идентификатор                            : 2
Формат                                   : AC-3
Формат/Информация                        : Audio Coding 3
Расширение режима                        : CM (complete main)
Параметр Endianness формата              : Big
Идентификатор кодека                     : 2000
Продолжительность                        : 1 ч. 37 м.
Вид битрейта                             : Постоянный
Битрейт                                  : 192 Кбит/сек
Каналы                                   : 2 канала
Расположение каналов                     : Front: L R
Частота                                  : 48,0 КГц
Битовая глубина                          : 16 бит
Метод сжатия                             : С потерями
Размер потока                            : 134 Мбайт (9%)
Выравнивание                             : Разделение по промежуткам
Продолжительность промежутка             : 42  мс. (1,00 видеокадр)
Время предзагрузки промежутка            : 500  мс.
-
[Profile]  [PM] 
Display posts:    
Reply to topic

Current time is: 22-Sep 16:39

All times are UTC + 2



You cannot post new topics in this forum
You cannot reply to topics in this forum
You cannot edit your posts in this forum
You cannot delete your posts in this forum
You cannot vote in polls in this forum
You cannot attach files in this forum
You cannot download files in this forum