Выводок / The Hatching (Майкл Андерсон / Michael Anderson) [2016, Великобритания, Ужасы, фэнтези, комедия, DVDRip] VO (Васька Куролесов)

Reply to topic
 
Author
Message

Satyr ®

Gender: Unknown

Longevity: 11 years

Posts: 15401

Reputation: 55 [+] [-]

Satyr · Post 27-Oct-2016 12:00

[Quote] 

Выводок / The Hatching
Страна: Великобритания
Жанр: Ужасы, фэнтези, комедия
Год выпуска: 2016
Продолжительность: 01:30:50
Перевод: Одноголосый закадровый Васька Куролесов по субтитрам gordana75
Cубтитры: нет
Оригинальная аудиодорожка: нет
Режиссер: Майкл Андерсон / Michael Anderson
В ролях: Эндрю Ли Поттс, Джек МакКаллен, Эбигейл Хэмилтон, Джорджия Хеншоу
Описание: Еще будучи подростком герой фильма вместе с друзьями решили похитить из ближайшего зоопарка яйца крокодила. Затея почти удалась, но от яиц пришлось избавиться. Прошло время и уже выросший Тим Уэббер возвращается жить в места, где провел детство. Как раз в это время начинают пропадать местные жители. Не сложно догадаться, что из выкраденных яиц тогда вылупились крокодилы и теперь настало время им полакомиться человечиной, а герою — встретиться со страхами детства…

Сэмпл: http://multi-up.com/1124612
Качество видео: DVDRip
Формат видео: AVI
Видео: XviD, 1959 Кбит/с, 720х304, 23.976 fps
Аудио: АС3, 2 ch, 48.0 KHz, 192 Кбит/с
Релиз от:

MediaInfo

General
Complete name : E:\The.Hatching.VO.DVDRip.ExKinoRay.avi
Format : AVI
Format/Info : Audio Video Interleave
File size : 1.37 GiB
Duration : 1 h 30 min
Overall bit rate : 2 160 kb/s
Director : Enigma
Writing application : VirtualDubMod 1.5.10.2 (build 2542/release)
Writing library : VirtualDubMod build 2542/release
Copyright : ExKinoRay
Video
ID : 0
Format : MPEG-4 Visual
Format profile : Advanced Simple@L5
Format settings, BVOP : 1
Format settings, QPel : No
Format settings, GMC : No warppoints
Format settings, Matrix : Custom
Codec ID : XVID
Codec ID/Hint : XviD
Duration : 1 h 30 min
Bit rate : 1 959 kb/s
Width : 720 pixels
Height : 304 pixels
Display aspect ratio : 2.35:1
Frame rate : 23.976 (23976/1000) FPS
Color space : YUV
Chroma subsampling : 4:2:0
Bit depth : 8 bits
Scan type : Progressive
Compression mode : Lossy
Bits/(Pixel*Frame) : 0.373
Stream size : 1.24 GiB (91%)
Writing library : XviD 73
Audio
ID : 1
Format : AC-3
Format/Info : Audio Coding 3
Mode extension : CM (complete main)
Format settings, Endianness : Big
Codec ID : 2000
Duration : 1 h 30 min
Bit rate mode : Constant
Bit rate : 192 kb/s
Channel(s) : 2 channels
Channel positions : Front: L R
Sampling rate : 48.0 kHz
Frame rate : 31.250 FPS (1536 spf)
Compression mode : Lossy
Stream size : 125 MiB (9%)
Alignment : Split accross interleaves
Interleave, duration : 42 ms (1.00 video frame)
Interleave, preload duratio : 500 ms
Title : VO (?????? ?????????)

Скриншот c названием фильма

Скриншоты

[Profile]  [PM] 
Display posts:    
Reply to topic

Current time is: 24-Jan 08:23

All times are UTC + 2



You cannot post new topics in this forum
You cannot reply to topics in this forum
You cannot edit your posts in this forum
You cannot delete your posts in this forum
You cannot vote in polls in this forum
You cannot attach files in this forum
You cannot download files in this forum