Очень плохие мамочки / Bad Moms (Джон Лукас / Jon Lucas, Скотт Мур / Scott Moore) [2016, США, комедия, BDRip-AVC] Dub + Original + Sub (eng)

Reply to topic
 
Author
Message

Satyr ®

Gender: Unknown

Longevity: 11 years

Posts: 15401

Reputation: 55 [+] [-]

Satyr · Post 27-Oct-2016 12:00

[Quote] 

Очень плохие мамочки / Bad Moms«Party Like a Mother»- Страна: США
Жанр: комедия
Год выпуска: 2016
Продолжительность: 01:40:57
Перевод: Профессиональный (дублированный) (iTunes)
Оригинальная аудиодорожка: английский
Субтитры: английские (полные, SDH)
Навигация по главам: есть
Режиссер: Джон Лукас / Jon Lucas, Скотт Мур / Scott Moore
В ролях: Мила Кунис (Amy), Кэтрин Хан (Carla), Кристен Белл (Kiki), Кристина Эпплгейт (Gwendolyn), Джада Пинкетт Смит (Stacy), Энни Мумоло (Vicky), Уна Лоуренс (Jane), Эмджей Энтони (Dylan), Дэвид Уолтон (Mike), Кларк Дьюк (Dale Kipler), Джей Эрнандес (Jessie Harkness), Уенделл Пирс (Principal Burr)
Описание: Идеальная мать, прекрасная жена, хорошая домохозяйка с успешной карьерой... Но стоит немного расслабиться, как тебе сразу напоминают о твоих обязанностях. Почему только мужчины имеют право развлекаться? Сколько же можно это терпеть?! Пора команде отчаянных мамочек пуститься во все тяжкие.- -Качество: BDRip-AVC (исходник - BDRemux|Bad.Moms.2016.REMUX.1080p.BluRay.AVC.DTS-HD.MA7.1-iFT)
Формат видео: MKV
Видео: x264, 1152x480 (2.40:1) 23,976 fps, ~2183 kbps, 0.165 bit/pixel
Аудио 1: 48 kHz, AC3 Dolby Digital, 3/2 (L,C,R,l,r) + LFE ch, ~384 kbps [русский]
Аудио 2: 48 kHz, AC3 Dolby Digital, 3/2 (L,C,R,l,r) + LFE ch, ~448 kbps [английский]
Формат субтитров: softsub (SRT)-

MediaInfo | x264 log

Format : Matroska
Format version : Version 4 / Version 2
File size : 2.17 GiB
Duration : 1h 40 min
Overall bit rate : 3 076 kb/s
Movie name : Очень плохие мамочки / Bad Moms (2016) :: AFM ::
Encoded date : UTC 2016-10-27 02:43:04
Writing application : mkvmerge v8.3.0 ('Over the Horizon') 32bit
Writing library : libebml v1.3.1 + libmatroska v1.4.2
Video
ID : 1
Format : AVC
Format/Info : Advanced Video Codec
Format profile : High@L4.1
Format settings, CABAC : Yes
Format settings, ReFrames : 11 frames
Codec ID : V_MPEG4/ISO/AVC
Duration : 1h 40 min
Bit rate : 2 183 kb/s
Width : 1 152 pixels
Height : 480 pixels
Display aspect ratio : 2.40:1
Frame rate mode : Constant
Frame rate : 23.976 (24000/1001) FPS
Color space : YUV
Chroma subsampling : 4:2:0
Bit depth : 8 bits
Scan type : Progressive
Bits/(Pixel*Frame) : 0.165
Stream size : 1.54 GiB (71%)
Title : BDRip by AFM
Writing library : x264 core 148 r2721+55 e19946b t_mod_Custom [8-bit@all X86_64]
Encoding settings : cabac=1 / ref=11 / deblock=1:-2:-2 / analyse=0x3:0x113 / me=umh / subme=10 / psy=1 / fade_compensate=0.00 / psy_rd=1.00:0.00 / mixed_ref=1 / me_range=32 / chroma_me=1 / trellis=2 / 8x8dct=1 / cqm=0 / deadzone=21,11 / fast_pskip=0 / chroma_qp_offset=-2 / threads=6 / lookahead_threads=1 / sliced_threads=0 / nr=0 / decimate=1 / interlaced=0 / bluray_compat=0 / constrained_intra=0 / fgo=0 / bframes=11 / b_pyramid=2 / b_adapt=2 / b_bias=0 / direct=1 / weightb=1 / open_gop=0 / weightp=2 / keyint=240 / keyint_min=23 / scenecut=40 / intra_refresh=0 / rc_lookahead=40 / rc=crf / mbtree=0 / crf=18.6000 / qcomp=0.65 / qpmin=0:0:0 / qpmax=69:69:69 / qpstep=4 / vbv_maxrate=50000 / vbv_bufsize=62500 / crf_max=0.0 / nal_hrd=none / filler=0 / ip_ratio=1.35 / pb_ratio=1.30 / aq=3:0.80 / aq-sensitivity=10.00 / aq-factor=1.00:1.00:1.00 / aq2=0 / aq3=0
Language : English
Default : Yes
Forced : No
Audio #1
ID : 2
Format : AC-3
Format/Info : Audio Coding 3
Mode extension : CM (complete main)
Format settings, Endianness : Big
Codec ID : A_AC3
Duration : 1h 40 min
Bit rate mode : Constant
Bit rate : 384 kb/s
Channel(s) : 6 channels
Channel positions : Front: L C R, Side: L R, LFE
Sampling rate : 48.0 kHz
Frame rate : 31.250 FPS (1536 spf)
Compression mode : Lossy
Stream size : 277 MiB (12%)
Title : Dub, AC3 5.1 ~384 kbs
Language : Russian
Default : Yes
Forced : No
Audio #2
ID : 3
Format : AC-3
Format/Info : Audio Coding 3
Mode extension : CM (complete main)
Format settings, Endianness : Big
Codec ID : A_AC3
Duration : 1h 40 min
Bit rate mode : Constant
Bit rate : 448 kb/s
Channel(s) : 6 channels
Channel positions : Front: L C R, Side: L R, LFE
Sampling rate : 48.0 kHz
Frame rate : 31.250 FPS (1536 spf)
Compression mode : Lossy
Stream size : 323 MiB (15%)
Title : Original, AC3 5.1 ~448 kbs
Language : English
Default : No
Forced : No
Text #1
ID : 4
Format : UTF-8
Codec ID : S_TEXT/UTF8
Codec ID/Info : UTF-8 Plain Text
Language : English
Default : No
Forced : No
Text #2
ID : 5
Format : UTF-8
Codec ID : S_TEXT/UTF8
Codec ID/Info : UTF-8 Plain Text
Title : SDH
Language : English
Default : No
Forced : No
Menu
00:00:00.000 : en:00:00:00.000
00:04:58.548 : en:00:04:58.548
00:09:17.056 : en:00:09:17.056
00:16:04.839 : en:00:16:04.839
00:21:45.221 : en:00:21:45.221
00:26:46.271 : en:00:26:46.271
00:29:36.149 : en:00:29:36.149
00:35:35.508 : en:00:35:35.508
00:39:20.900 : en:00:39:20.900
00:44:41.012 : en:00:44:41.012
00:48:33.202 : en:00:48:33.202
00:53:43.178 : en:00:53:43.178
00:59:08.503 : en:00:59:08.503
01:04:24.110 : en:01:04:24.110
01:08:55.882 : en:01:08:55.882
01:14:03.856 : en:01:14:03.856
01:18:57.358 : en:01:18:57.358
01:23:48.982 : en:01:23:48.982
01:26:58.713 : en:01:26:58.713
01:32:59.073 : en:01:32:59.073

x264

x264 [info]: frame I:1563 Avg QP:17.44 size: 77848
x264 [info]: frame P:29908 Avg QP:18.83 size: 25830
x264 [info]: frame B:113751 Avg QP:21.31 size: 7058
x264 [info]: consecutive B-frames: 1.7% 1.3% 4.8% 22.5% 21.4% 41.6% 4.3% 1.0% 0.6% 0.3% 0.2% 0.3%
x264 [info]: mb I I16..4: 5.8% 78.6% 15.7%
x264 [info]: mb P I16..4: 0.6% 8.6% 1.4% P16..4: 36.1% 28.9% 15.7% 0.0% 0.0% skip: 8.8%
x264 [info]: mb B I16..4: 0.0% 0.4% 0.1% B16..8: 41.1% 10.3% 2.9% direct: 4.0% skip:41.0% L0:42.8% L1:45.7% BI:11.6%
x264 [info]: 8x8 transform intra:79.4% inter:64.6%
x264 [info]: coded y,uvDC,uvAC intra: 90.8% 90.9% 77.1% inter: 21.7% 18.1% 4.5%
x264 [info]: i16 v,h,dc,p: 42% 13% 5% 39%
x264 [info]: i8 v,h,dc,ddl,ddr,vr,hd,vl,hu: 12% 9% 6% 9% 14% 15% 13% 12% 11%
x264 [info]: i4 v,h,dc,ddl,ddr,vr,hd,vl,hu: 10% 8% 2% 9% 16% 16% 14% 12% 12%
x264 [info]: i8c dc,h,v,p: 45% 17% 17% 21%
x264 [info]: Weighted P-Frames: Y:2.1% UV:1.4%
x264 [info]: ref P L0: 47.9% 12.7% 16.6% 6.1% 5.0% 3.1% 3.0% 1.6% 1.6% 1.1% 1.3% 0.0% 0.0%
x264 [info]: ref B L0: 76.7% 10.2% 4.8% 2.7% 1.7% 1.3% 1.0% 0.7% 0.6% 0.2%
x264 [info]: ref B L1: 94.6% 5.4%
x264 [info]: kb/s:2241.52

Скриншоты

с названием

[Profile]  [PM] 
Display posts:    
Reply to topic

Current time is: 25-Sep 06:17

All times are UTC + 2



You cannot post new topics in this forum
You cannot reply to topics in this forum
You cannot edit your posts in this forum
You cannot delete your posts in this forum
You cannot vote in polls in this forum
You cannot attach files in this forum
You cannot download files in this forum